Месть Лиззи Борден / Lizzie (Крэйг Уилльям Макнейлл / Craig William Macneill) [2018, США, биография, криминал, драма, BDRip] Dub (iTunes)

Ответить на тему
Статистика раздачи
Размер:  1.46 GB   |    Зарегистрирован:  5 года   |    Скачано:  2 раза
Список скачавших: Нет

Полного источника не было: Никогда

     
 
Автор Сообщение

солнышко ®

Пол: Женский

Зарегистрированный: 5 года 1 месяц

Сообщений: 712

Создавать темы 23-Мар-2019 16:40 | #1 · Автор

[Цитировать]

Месть Лиззи Борден / Lizzie
Страна: США
Жанр: биография, криминал, драма
Год выпуска: 2018
Продолжительность: 01:45:42-Перевод: Профессиональный (дублированный) | iTunes
Субтитры: нет
Оригинальная аудиодорожка: нет-Режиссер: Крэйг Уилльям Макнейлл / Craig William Macneill-В ролях: Хлоя Севиньи, Кристен Стюарт, Дэнис О'Хэр, Ким Диккенс, Фиона Шоу, Джефф Перри, Джейми Шеридан, Тара Окс, Джэй Хьюджули, Дэрин Купер-Описание: 4 августа 1892 года усадьба состоятельной семьи Борден огласилась дикими криками. Служанка обнаружила изуродованные и окровавленные тела главы семейства и его жены. Кто-то нанес супружеской паре десятки зверских ударов топором. Следов ограбления не нашли, и основной подозреваемой стала девушка, чьи отец и мачеха были убиты с поразительной жестокостью. Расследование этого преступления вылилось в одно из самых известных и невероятных дел в истории американской криминалистики, в легенду о насилии и мести, о тайной и запретной страсти.- -Качество видео: BDRip
Формат видео: AVI
Видео: 720x304 (2.37:1), 23.976 fps, XviD build 73 ~1581 kbps avg, 0.30 bit/pixel
Аудио: 48 kHz, AC3 Dolby Digital, 3/2 (L,C,R,l,r) + LFE ch, ~384 kbps-Сэмпл-

MediaInfo

Код:Формат : AVI
Формат/Информация : Audio Video Interleave
Размер файла : 1,46 Гбайт
Продолжительность : 1 ч. 45 м.
Общий поток : 1975 Кбит/сек
Программа кодирования : VirtualDubMod 1.5.10.3 | www.virtualdub-fr.org || (build 2550/release)
Библиотека кодирования : VirtualDubMod build 2550/release
Видео
Идентификатор : 0
Формат : MPEG-4 Visual
Профиль формата : Advanced Simple@L5
Настройки формата : BVOP1 / Custom Matrix
Параметр BVOP формата : 1
Параметр QPel формата : Нет
Параметр GMC формата : Без точки перехода
Параметр матрицы формата : Выборочная
Идентификатор кодека : XVID
Идентификатор кодека/Подсказка : XviD
Продолжительность : 1 ч. 45 м.
Битрейт : 1581 Кбит/сек
Ширина : 720 пикселей
Высота : 304 пикселя
Соотношение сторон : 2,35:1
Частота кадров : 23,976 (24000/1001) кадра/сек
Цветовое пространство : YUV
Субдискретизация насыщенности : 4:2:0
Битовая глубина : 8 бит
Тип развёртки : Прогрессивная
Метод сжатия : С потерями
Бит/(Пиксели*Кадры) : 0.301
Размер потока : 1,17 Гбайт (80%)
Библиотека кодирования : XviD 73
Аудио
Идентификатор : 1
Формат : AC-3
Формат/Информация : Audio Coding 3
Коммерческое название : Dolby Digital
Идентификатор кодека : 2000
Продолжительность : 1 ч. 45 м.
Вид битрейта : Постоянный
Битрейт : 384 Кбит/сек
Каналы : 6 каналов
Channel layout : L R C LFE Ls Rs
Частота : 48,0 КГц
Частота кадров : 31,250 кадров/сек (1536 SPF)
Битовая глубина : 16 бит
Метод сжатия : С потерями
Размер потока : 290 Мбайт (19%)
Выравнивание : Разделение по промежуткам
Продолжительность промежутка : 42 мс. (1,00 видеокадр)
Время предзагрузки промежутка : 500 мс.
ServiceKind/String : Complete Main

Скриншоты


Перезалито на iTunes.
Месть Лиззи Борден / Lizzie (Крэйг Уилльям Макнейлл / Craig William Macneill) [2018, США, биография, криминал, драма, BDRip] Dub (iTunes) [cybertorrent.pro-1360].torrent 
Торрент: Зарегистрирован [ 2019-03-23 16:40 ]

info_hash: A79C0613F500ADB5015B884D1736E92261E80BEB

Скачать .torrent

Скачать

15 KB

Статус: проверено
Скачано: 2 раза
Размер: 1.46 GB
[Профиль] [ЛС]
Показать сообщения:    
Ответить на тему

Текущее время: 15-Апр 08:55

Часовой пояс: UTC ± 0



Вы не можете начинать темы
Вы не можете отвечать на сообщения
Вы не можете редактировать свои сообщения
Вы не можете удалять свои сообщения
Вы не можете голосовать в опросах
Вы не можете прикреплять файлы к сообщениям
Вы можете скачивать файлы

[  Время выполнения: 0.0634 сек  |  MySQL: 0.0176 сек (28%) · 8 запр.  |  сжатие Gzip: выкл  |  Память: 429.79 KB / 2.37 MB / 1.51 MB  ] |  |  |