Горькое море / Amargo mar (Антонио Экино / Antonio Eguino) [1984, Боливия, Куба, военный, исторический, DVDRip] + Sub Rus + Original Spa

Ответить на тему
Статистика раздачи
Размер:  1.38 GB   |    Зарегистрирован:  5 года 2 месяца   |    Скачано:  2 раза
Список скачавших: Нет

Полного источника не было: Никогда

     
 
Автор Сообщение

serzh ®

Пол: Не указан

Зарегистрированный: 5 года 3 месяца

Сообщений: 441

Создавать темы 23-Мар-2019 16:39 | #1 · Автор

[Цитировать]

Горькое море / Amargo mar
Страна: Боливия, Куба
Жанр: военный, исторический
Год выпуска: 1984
Продолжительность: 01:36:33
Перевод: Субтитры
Субтитры: русские - enoeno
Оригинальная аудиодорожка: испанский
Режиссер: Антонио Экино / Antonio Eguino
В ролях: Давид Мондака, Эдди Браво, Альфредо Рибера, Эдгар Варгас, Орландо Саша, Энрикета Ульоа, Герман Кальдерон, Даниэль дель Кастильо, Нинон Давалос, Эдвин Моралес, Луис Алдана, Норма Мерло, Агар Делос, Рене Каприлес, Эдгар Дарио Гонсалес
Описание: Фильм о конфликте между Боливией, Перу и Чили, приведшему к Тихоокеанской или Селитряной войне 1879 - 1883 г. г.
Доп. информация: Редкий рип с английским хардсабом. Перевод с испанского и английского и подготовка субтитров - enoeno
Сэмпл: http://sendfile.su/1483830
Качество видео: DVDRip
Формат видео: AVI
Видео: MPEG-4 Visual at 1851 Кбит/сек, 528 x 400 (1.320) at 23.976 fps
Аудио: MP3 at 192 Кбит/сек, 2 канала, 48,0 КГц
Формат субтитров: softsub (SRT)

Образец субтитров

1
00:00:08,113 --> 00:00:10,476
В 1830 году чилийский идеолог
Диего Порталес заявил:
2
00:00:10,476 --> 00:00:14,233
"Мы не должны оставаться
пассивными или покорными
3
00:00:15,343 --> 00:00:18,423
при узости наших географических пределов.
4
00:00:19,347 --> 00:00:21,907
Наше решение находится на севере.
5
00:00:22,935 --> 00:00:26,033
Мы должны действовать с политической
точки зрения и в военном отношении
6
00:00:26,846 --> 00:00:31,625
расширить нашу территорию
до 17-ой параллели и далее...".
7
00:01:04,466 --> 00:01:06,953
ГОРЬКОЕ МОРЕ
8
00:01:20,243 --> 00:01:23,257
После долгой поездки вдоль
боливийского побережья
9
00:01:24,343 --> 00:01:27,357
я должен был покинуть море,
бушевавшее позади меня.
10
00:01:28,295 --> 00:01:33,281
У меня было предчувствие, что я никогда,
возможно, не вижу его снова.
11
00:01:33,770 --> 00:01:38,076
Боливийское побережье Тихого океана.
3 января 1879 года.
12
00:03:13,198 --> 00:03:16,452
Столица Боливии Ла-Пас.
14 января 1879 года.
13
00:03:16,452 --> 00:03:20,512
Два года ужасной засухи бичевали страну,
14
00:03:21,426 --> 00:03:25,705
вызывая голод и болезни.
15
00:04:40,745 --> 00:04:43,163
Президентский дворец.
16
00:04:56,581 --> 00:04:59,547
- Дон Хулио Мендес ожидает меня.
- Кто вы?
- Инженер Мануэль Давалос.
17
00:04:59,547 --> 00:05:00,853
Минуту, пожалуйста.
18
00:05:12,659 --> 00:05:15,990
Инженер Мануэль Давалос,
я очень рад видеть вас.
19
00:05:16,727 --> 00:05:20,645
Миссия закончена.
Я вернулся с долгой поездки.
20
00:05:21,293 --> 00:05:23,782
Сеньор президент ждет вас.
Пожалуйста, проходите.

MediaInfo

Общее
Полное имя : H:\Amargo_mar_1984\Amargo_mar_1984.avi
Формат : AVI
Формат/Информация : Audio Video Interleave
Размер файла : 1,38 Гбайт
Продолжительность : 1 ч. 36 м.
Общий поток : 2053 Кбит/сек
Библиотека кодирования : VirtualDub build 32842/release
Видео
Идентификатор : 0
Формат : MPEG-4 Visual
Профиль формата : Advanced Simple@L5
Параметр BVOP формата : 1
Параметр QPel формата : Нет
Параметр GMC формата : Без точки перехода
Параметр матрицы формата : Выборочная
Идентификатор кодека : XVID
Идентификатор кодека/Подсказка : XviD
Продолжительность : 1 ч. 36 м.
Битрейт : 1851 Кбит/сек
Ширина : 528 пикселей
Высота : 400 пикселей
Соотношение сторон : 4:3
Частота кадров : 23,976 кадра/сек
Цветовое пространство : YUV
Субдискретизация насыщенности : 4:2:0
Битовая глубина : 8 бит
Тип развёртки : Прогрессивная
Метод сжатия : С потерями
Бит/(Пиксели*Кадры) : 0.366
Размер потока : 1,25 Гбайт (90%)
Библиотека кодирования : XviD 1.2.1 (UTC 2008-12-04)
Аудио
Идентификатор : 1
Формат : MPEG Audio
Версия формата : Version 1
Профиль формата : Layer 3
Режим : Joint stereo
Расширение режима : MS Stereo
Идентификатор кодека : 55
Идентификатор кодека/Подсказка : MP3
Продолжительность : 1 ч. 36 м.
Вид битрейта : Постоянный
Битрейт : 192 Кбит/сек
Каналы : 2 канала
Частота : 48,0 КГц
Метод сжатия : С потерями
Размер потока : 133 Мбайт (9%)
Выравнивание : Соединение по промежуткам
Продолжительность промежутка : 42 мс. (1,00 видеокадр)
Время предзагрузки промежутка : 1008 мс.

Скриншот c названием фильма

Скриншоты






Горькое море / Amargo mar (Антонио Экино / Antonio Eguino) [1984, Боливия, Куба, военный, исторический, DVDRip] + Sub Rus + Original Spa [cybertorrent.pro-1381].torrent 
Торрент: Зарегистрирован [ 2019-03-23 16:40 ]

info_hash: 1BC7F42CC649ECB58D05CCF0CE0323C36807F34B

Скачать .torrent

Скачать

14 KB

Статус: проверено
Скачано: 2 раза
Размер: 1.38 GB
[Профиль] [ЛС]
Показать сообщения:    
Ответить на тему

Текущее время: 21-Июн 18:20

Часовой пояс: UTC ± 0



Вы не можете начинать темы
Вы не можете отвечать на сообщения
Вы не можете редактировать свои сообщения
Вы не можете удалять свои сообщения
Вы не можете голосовать в опросах
Вы не можете прикреплять файлы к сообщениям
Вы можете скачивать файлы

[  Время выполнения: 0.0538 сек  |  MySQL: 0.0167 сек (31%) · 8 запр.  |  сжатие Gzip: выкл  |  Память: 429.79 KB / 2.36 MB / 1.51 MB  ] |  |  |