Айка (Сергей Дворцевой) [2018, Россия, Германия, Польша, Китай, Казахстан, драма, WEB-DLRip]

Ответить на тему
Статистика раздачи
Размер:  2.18 GB   |    Зарегистрирован:  5 года 1 месяц   |    Скачано:  2 раза
Список скачавших: Нет

Полного источника не было: Никогда

     
 
Автор Сообщение

Гость ®

Создавать темы 23-Мар-2019 16:39 | #1

[Цитировать]

Айка
Страна: Россия, Германия, Польша, Китай, Казахстан
Жанр: драма
Год выпуска: 2018
Продолжительность: 01:53:36
Субтитры: нет-Режиссер: Сергей Дворцевой-В ролях: Самал Еслямова, Джипаргуль Абдилова, Давид Алавердян, Нуржамал Мамадалиева, Нуржан Кунназарова, Сергей Мазур, Азамат Сатимбаев, Асхат Кучинчереков, Лариса Фирсова, Полина Северная-Описание: Молодая девушка, приехавшая в холодную Москву на заработки, вынуждена оставить своего новорожденного ребенка в роддоме. Однако вскоре ей предстоит понять, способна ли она смириться с разлукой.- -Качество видео: WEB-DLRip
Формат видео: AVI
Видео: 704x400 (1.76:1), 24.000 fps, XviD build 73 ~2359 kbps avg, 0.35 bit/pixel
Аудио: 48 kHz, AC3 Dolby Digital, 3/2 (L,C,R,l,r) + LFE ch, ~384 kbps - iTunes-Сэмпл-

MediaInfo

Код:Формат : AVI
Формат/Информация : Audio Video Interleave
Профиль формата : OpenDML
Размер файла : 2,18 Гбайт
Продолжительность : 1 ч. 53 м.
Общий поток : 2750 Кбит/сек
Программа кодирования : VirtualDubMod 1.5.10.3 | www.virtualdub-fr.org || (build 2550/release)
Библиотека кодирования : VirtualDubMod build 2550/release
Видео
Идентификатор : 0
Формат : MPEG-4 Visual
Профиль формата : Advanced Simple@L5
Настройки формата : BVOP1 / Custom Matrix
Параметр BVOP формата : 1
Параметр QPel формата : Нет
Параметр GMC формата : Без точки перехода
Параметр матрицы формата : Выборочная
Идентификатор кодека : XVID
Идентификатор кодека/Подсказка : XviD
Продолжительность : 1 ч. 53 м.
Битрейт : 2354 Кбит/сек
Ширина : 704 пикселя
Высота : 400 пикселей
Соотношение сторон : 16:9
Частота кадров : 24,000 кадра/сек
Цветовое пространство : YUV
Субдискретизация насыщенности : 4:2:0
Битовая глубина : 8 бит
Тип развёртки : Прогрессивная
Метод сжатия : С потерями
Бит/(Пиксели*Кадры) : 0.348
Размер потока : 1,87 Гбайт (86%)
Библиотека кодирования : XviD 73
Аудио
Идентификатор : 1
Формат : AC-3
Формат/Информация : Audio Coding 3
Коммерческое название : Dolby Digital
Идентификатор кодека : 2000
Продолжительность : 1 ч. 53 м.
Вид битрейта : Постоянный
Битрейт : 384 Кбит/сек
Каналы : 6 каналов
Channel layout : L R C LFE Ls Rs
Частота : 48,0 КГц
Частота кадров : 31,250 кадров/сек (1536 SPF)
Битовая глубина : 16 бит
Метод сжатия : С потерями
Размер потока : 312 Мбайт (14%)
Выравнивание : Разделение по промежуткам
Продолжительность промежутка : 42 мс. (1,00 видеокадр)
Время предзагрузки промежутка : 500 мс.
ServiceKind/String : Complete Main

Скриншоты


Айка (Сергей Дворцевой) [2018, Россия, Германия, Польша, Китай, Казахстан, драма, WEB-DLRip] [cybertorrent.pro-1397].torrent 
Торрент: Зарегистрирован [ 2019-03-23 16:40 ]

info_hash: 0CAAECE4A9F22499C27D523A705661E3236AF4B9

Скачать .torrent

Скачать

11 KB

Статус: проверено
Скачано: 2 раза
Размер: 2.18 GB
 
Показать сообщения:    
Ответить на тему

Текущее время: 18-Май 13:00

Часовой пояс: UTC ± 0



Вы не можете начинать темы
Вы не можете отвечать на сообщения
Вы не можете редактировать свои сообщения
Вы не можете удалять свои сообщения
Вы не можете голосовать в опросах
Вы не можете прикреплять файлы к сообщениям
Вы можете скачивать файлы

[  Время выполнения: 0.0476 сек  |  MySQL: 0.0138 сек (29%) · 8 запр.  |  сжатие Gzip: выкл  |  Память: 429.79 KB / 2.35 MB / 1.5 MB  ] |  |  |