Гринч / The Grinch (Ярроу Чейни / Yarrow Cheney, Скотт Моужер / Scott Mosier) [2018, Китай, США, Франция, Япония, мультфильм, фэнтези, комедия, семейный, BDRip] Dub (iTunes)

Ответить на тему
Статистика раздачи
Размер:  743 MB   |    Зарегистрирован:  5 года 2 месяца   |    Скачано:  2 раза
Список скачавших: Нет

Полного источника не было: Никогда

     
 
Автор Сообщение

karlll ®

Пол: Не указан

Зарегистрированный: 5 года 3 месяца

Сообщений: 162

Создавать темы 24-Мар-2019 17:09 | #1 · Автор

[Цитировать]

Гринч / The Grinch
Страна: Китай, США, Франция, Япония
Жанр: мультфильм, фэнтези, комедия, семейный
Год выпуска: 2018
Продолжительность: 01:25:49-Перевод: Профессиональный (дублированный)
Субтитры: русские (форс.)
Оригинальная аудиодорожка: нет-Режиссер: Ярроу Чейни / Yarrow Cheney, Скотт Моужер / Scott Mosier-Роли озвучивали: Бенедикт Камбербэтч, Кэмерон Сили, Рашида Джонс, Фаррелл Уильямс, Тристан О`Хара, Кенан Томпсон, Сэм Лаваньино, Рамон Хэмилтон, Анджела Лэнсбери, Скарлет Эстевез, Майкл Битти, Лори Алан, Ивэн Кишияма-Описание: Любой бы на месте Гринча позеленел и взбесился. Как порядочный интроверт, он живёт в тёмной пещере на самой вершине горы подальше ото всех, но эти «все» готовят грандиознейшее празднование нового года. Они шумят, всё украшают и дико бесят. Кто бы отказал себе в удовольствии испортить праздник? Гринч решает украсть Новый год.- -Качество видео: BDRip | The.Grinch.2018.MULTi.COMPLETE.BLURAY-COJONUDO
Формат видео: AVI
Видео: 688x288 (2.39:1), 23.976 fps, XviD build 73 ~1072 kbps avg, 0.23 bit/pixel
Аудио: 48 kHz, MPEG Layer 3, 2 ch, ~128.00 kbps avg-Сэмпл-

MediaInfo

Код:Формат : AVI
Формат/Информация : Audio Video Interleave
Размер файла : 743 Мбайт
Продолжительность : 1 ч. 25 м.
Общий поток : 1210 Кбит/сек
Программа кодирования : VirtualDubMod 1.5.10.3 | www.virtualdub-fr.org || (build 2550/release)
Библиотека кодирования : VirtualDubMod build 2550/release
Видео
Идентификатор : 0
Формат : MPEG-4 Visual
Профиль формата : Advanced Simple@L5
Настройки формата : BVOP1 / Custom Matrix
Параметр BVOP формата : 1
Параметр QPel формата : Нет
Параметр GMC формата : Без точки перехода
Параметр матрицы формата : Выборочная
Идентификатор кодека : XVID
Идентификатор кодека/Подсказка : XviD
Продолжительность : 1 ч. 25 м.
Битрейт : 1073 Кбит/сек
Ширина : 688 пикселей
Высота : 288 пикселей
Соотношение сторон : 2,40:1
Частота кадров : 23,976 (24000/1001) кадра/сек
Цветовое пространство : YUV
Субдискретизация насыщенности : 4:2:0
Битовая глубина : 8 бит
Тип развёртки : Прогрессивная
Метод сжатия : С потерями
Бит/(Пиксели*Кадры) : 0.226
Размер потока : 658 Мбайт (89%)
Библиотека кодирования : XviD 73
Аудио
Идентификатор : 1
Формат : MPEG Audio
Версия формата : Version 1
Профиль формата : Layer 3
Идентификатор кодека : 55
Идентификатор кодека/Подсказка : MP3
Продолжительность : 1 ч. 25 м.
Вид битрейта : Постоянный
Битрейт : 128 Кбит/сек
Каналы : 2 канала
Частота : 48,0 КГц
Частота кадров : 41,667 кадра/сек (1152 SPF)
Метод сжатия : С потерями
Размер потока : 78,6 Мбайт (11%)
Выравнивание : Соединение по промежуткам
Продолжительность промежутка : 42 мс. (1,00 видеокадр)
Время предзагрузки промежутка : 504 мс.
Библиотека кодирования : LAME3.99r
Настройки программы : -m s -V 4 -q 2 -lowpass 17 -b 128

Скриншоты


Гринч / The Grinch (Ярроу Чейни / Yarrow Cheney, Скотт Моужер / Scott Mosier) [2018, Китай, США, Франция, Япония, мультфильм, фэнтези, комедия, семейный, BDRip] Dub (iTunes) [cybertorrent.pro-1424].torrent 
Торрент: Зарегистрирован [ 2019-03-24 17:09 ]

info_hash: 5336ECB05028DCA155A609C22F7BB6F7C7D7BB78

Скачать .torrent

Скачать

15 KB

Статус: проверено
Скачано: 2 раза
Размер: 743 MB
[Профиль] [ЛС]
Показать сообщения:    
Ответить на тему

Текущее время: 16-Июн 13:03

Часовой пояс: UTC ± 0



Вы не можете начинать темы
Вы не можете отвечать на сообщения
Вы не можете редактировать свои сообщения
Вы не можете удалять свои сообщения
Вы не можете голосовать в опросах
Вы не можете прикреплять файлы к сообщениям
Вы можете скачивать файлы

[  Время выполнения: 0.0472 сек  |  MySQL: 0.0144 сек (31%) · 8 запр.  |  сжатие Gzip: выкл  |  Память: 429.79 KB / 2.35 MB / 1.5 MB  ] |  |  |