Охотники за душами / Soul Hunters (Адриан Асеведо-Смит / Adrian Acevedo-Smith, Артуро Асеведо-Смит / Arturo Acevedo-Smith) [2019, США, боевик, триллер, боевые искусства, WEB-DLRip] MVO (HDRezka Studio)

Ответить на тему
Статистика раздачи
   
 
Автор Сообщение

Гость ®

Создавать темы 24-Мар-2019 17:09 | #1

[Цитировать]

Охотники за душами / Soul Hunters
Страна: США
Жанр: боевик, триллер, боевые искусства
Год выпуска: 2019
Продолжительность: 01:41:16-Перевод: Любительский (многоголосый закадровый) | HDRezka Studio
Субтитры: нет
Оригинальная аудиодорожка: нет-Режиссер: Адриан Асеведо-Смит / Adrian Acevedo-Smith, Артуро Асеведо-Смит / Arturo Acevedo-Smith-В ролях: Зак Шерер, Франциска Шисслер, Дэвид Джош Лоуренс, Николай Александров, Келси Джонсон, Тайлер Коул, Арамис Мерлин, Дэвид Сауседо, Ками Д. Брудер, Мишель Александрия-Описание: Похищение человека, которое транслируют в прямом эфире в социальных сетях, внезапно превращается в разбирательство над судьей, который вынес неверный вердикт в одном из своих прошлых уголовных дел. Однако на этот раз судья становится подсудимым, а роль судьи и присяжных исполняют зрители прямой трансляции и именно им предстоит решать, останется ли он в живых.- -Качество видео: WEB-DLRip
Формат видео: AVI
Видео: 704x400 (1.76:1), 23.976 fps, XviD build 73 ~1856 kbps avg, 0.28 bit/pixel
Аудио: 48 kHz, AC3 Dolby Digital, 2/0 (L,R) ch, ~192 kbps-Сэмпл-

MediaInfo

Код:Формат : AVI
Формат/Информация : Audio Video Interleave
Размер файла : 1,46 Гбайт
Продолжительность : 1 ч. 41 м.
Общий поток : 2058 Кбит/сек
Программа кодирования : VirtualDubMod 1.5.10.3 | www.virtualdub-fr.org || (build 2550/release)
Библиотека кодирования : VirtualDubMod build 2550/release
Видео
Идентификатор : 0
Формат : MPEG-4 Visual
Профиль формата : Advanced Simple@L5
Настройки формата : BVOP1 / Custom Matrix
Параметр BVOP формата : 1
Параметр QPel формата : Нет
Параметр GMC формата : Без точки перехода
Параметр матрицы формата : Выборочная
Идентификатор кодека : XVID
Идентификатор кодека/Подсказка : XviD
Продолжительность : 1 ч. 41 м.
Битрейт : 1856 Кбит/сек
Ширина : 704 пикселя
Высота : 400 пикселей
Соотношение сторон : 16:9
Частота кадров : 23,976 (24000/1001) кадра/сек
Цветовое пространство : YUV
Субдискретизация насыщенности : 4:2:0
Битовая глубина : 8 бит
Тип развёртки : Прогрессивная
Метод сжатия : С потерями
Бит/(Пиксели*Кадры) : 0.275
Размер потока : 1,31 Гбайт (90%)
Библиотека кодирования : XviD 73
Аудио
Идентификатор : 1
Формат : AC-3
Формат/Информация : Audio Coding 3
Коммерческое название : Dolby Digital
Идентификатор кодека : 2000
Продолжительность : 1 ч. 41 м.
Вид битрейта : Постоянный
Битрейт : 192 Кбит/сек
Каналы : 2 канала
Channel layout : L R
Частота : 48,0 КГц
Частота кадров : 31,250 кадров/сек (1536 SPF)
Битовая глубина : 16 бит
Метод сжатия : С потерями
Размер потока : 139 Мбайт (9%)
Выравнивание : Разделение по промежуткам
Продолжительность промежутка : 42 мс. (1,00 видеокадр)
Время предзагрузки промежутка : 500 мс.
ServiceKind/String : Complete Main

Скриншоты


 
Показать сообщения:    
Ответить на тему

Текущее время: 21-Июн 17:35

Часовой пояс: UTC ± 0



Вы не можете начинать темы
Вы не можете отвечать на сообщения
Вы не можете редактировать свои сообщения
Вы не можете удалять свои сообщения
Вы не можете голосовать в опросах
Вы не можете прикреплять файлы к сообщениям
Вы не можете скачивать файлы

[  Время выполнения: 0.0338 сек  |  MySQL: 0.0044 сек (13%) · 4 запр.  |  сжатие Gzip: выкл  |  Память: 429.79 KB / 1.99 MB / 1.4 MB  ] |  |  |