В погоне за Бонни и Клайдом / Разбойники с большой дороги / The Highwaymen (Джон Ли Хэнкок / John Lee Hancock) [2019, США, триллер, драма, криминал, детектив, WEB-DLRip] Dub

Ответить на тему
Статистика раздачи
   
 
Автор Сообщение

Гость ®

Создавать темы 29-Мар-2019 17:14 | #1

[Цитировать]

В погоне за Бонни и Клайдом / Разбойники с большой дороги / The Highwaymen- Год выхода: 2019
Страна: США
Жанр: триллер, драма, криминал, детектив
Продолжительность: 02:12:16
Перевод: Профессиональный (полное дублирование) АРК-ТВ Studio & VSI International
Субтитры: Русские (форсированные) (внешние *.srt)-Режиссер:
Джон Ли Хэнкок / John Lee Hancock-В ролях:
Кевин Костнер, Вуди Харрельсон, Ким Диккенс, Эмили Бробст, Кэти Бейтс, У. Эрл Браун, Джон Кэрролл Линч, Томас Манн, Эдвард Боссерт, Дэвид Фурр-О фильме:
В 1930-е годы техасский рейнджер Фрэнк Хеймер получает задание поймать и обезвредить двух опасных грабителей банков. Вместе с напарником Мэнни Голтом он возглавляет охоту за парочкой молодых неуловимых преступников, которых зовут Бонни и Клайд.-Релиз групп | | IMDB | КиноПоиск | Сэмпл |-Качество: WEB-DLRip
Формат: AVI
Видео: 720x304 (2.37:1), 24.000 fps, XviD build 67 ~1388 kbps avg, 0.26 bit/pixel
Аудио: 48 kHz, AC3 Dolby Digital, 2/0 (L,R) ch, ~192 kbps avg-* Релиз создан при финансовой поддержке EniaHD-

Скриншоты

-

MediaInfo

Код:Полное имя : D:\The_Highwaymen_2019_WEB-DLRip_by_Dalemake.avi
Формат : AVI
Формат/Информация : Audio Video Interleave
Размер файла : 1,47 Гбайт
Продолжительность : 2 ч. 12 м.
Общий поток : 1590 Кбит/сек
Программа кодирования : VirtualDubMod 1.5.10.3 | www.virtualdub-fr.org || (build 2550/release)
Библиотека кодирования : VirtualDubMod build 2550/release
Видео
Идентификатор : 0
Формат : MPEG-4 Visual
Профиль формата : Advanced Simple@L5
Параметр BVOP формата : 1
Параметр QPel формата : Нет
Параметр GMC формата : Без точки перехода
Параметр матрицы формата : Выборочная
Идентификатор кодека : XVID
Идентификатор кодека/Подсказка : XviD
Продолжительность : 2 ч. 12 м.
Битрейт : 1389 Кбит/сек
Ширина : 720 пикселей
Высота : 304 пикселя
Соотношение сторон : 2,35:1
Частота кадров : 24,000 кадра/сек
Цветовое пространство : YUV
Субдискретизация насыщенности : 4:2:0
Битовая глубина : 8 бит
Тип развёртки : Прогрессивная
Метод сжатия : С потерями
Бит/(Пиксели*Кадры) : 0.264
Размер потока : 1,28 Гбайт (87%)
Библиотека кодирования : XviD 67
Аудио
Идентификатор : 1
Формат : AC-3
Формат/Информация : Audio Coding 3
Расширение режима : CM (complete main)
Параметр Endianness формата : Big
Идентификатор кодека : 2000
Продолжительность : 2 ч. 12 м.
Вид битрейта : Постоянный
Битрейт : 192 Кбит/сек
Каналы : 2 канала
Расположение каналов : Front: L R
Частота : 48,0 КГц
Метод сжатия : С потерями
Размер потока : 182 Мбайт (12%)
Выравнивание : Разделение по промежуткам
Продолжительность промежутка : 42 мс. (1,00 видеокадр)
Время предзагрузки промежутка : 500 мс.
-
 
Показать сообщения:    
Ответить на тему

Текущее время: 16-Июн 13:06

Часовой пояс: UTC ± 0



Вы не можете начинать темы
Вы не можете отвечать на сообщения
Вы не можете редактировать свои сообщения
Вы не можете удалять свои сообщения
Вы не можете голосовать в опросах
Вы не можете прикреплять файлы к сообщениям
Вы не можете скачивать файлы

[  Время выполнения: 0.0613 сек  |  MySQL: 0.0084 сек (14%) · 4 запр.  |  сжатие Gzip: выкл  |  Память: 429.79 KB / 1.99 MB / 1.41 MB  ] |  |  |