Море соблазна / Serenity (Стивен Найт / Steven Knight) [2019, США, триллер, драма, BDRip] MVO (HDRezka Studio)

Ответить на тему
Статистика раздачи
   
 
Автор Сообщение

Гость ®

Создавать темы 30-Мар-2019 15:35 | #1

[Цитировать]

Море соблазна / Serenity
Страна: США
Жанр: триллер, драма
Год выпуска: 2019
Продолжительность: 01:46:01-Перевод: Любительский (многоголосый закадровый) | HDRezka Studio
Субтитры: нет
Оригинальная аудиодорожка: нет-Режиссер: Стивен Найт / Steven Knight-В ролях: Мэттью МакКонахи, Энн Хэтэуэй, Дайан Лэйн, Джейсон Кларк, Джимон Хонсу, Джереми Стронг, Шарлотта Батлер, Дэвид Батлер, Рафаэль Сайег, Майкл Ричард-Описание: Палящее солнце Карибских островов, верный корабль и жизнь, полная риска - его стихия. Единственная женщина, которую он любил, вышла замуж за миллиардера и живет на вилле в Майами. Неожиданно она вновь появляется в его жизни и умоляет о защите. С этой минуты знакомые воды превратятся в море соблазна...-
Качество видео: BDRip | Serenity.2019.1080p.BluRay.REMUX.AVC.DTS-HD.MA.5.1-FGT
Формат видео: AVI
Видео: 720x304 (2.37:1), 23.976 fps, XviD build 73 ~1770 kbps avg, 0.34 bit/pixel
Аудио: 48 kHz, AC3 Dolby Digital, 2/0 (L,R) ch, ~192 kbps-Сэмпл-

MediaInfo

Код:Формат : AVI
Формат/Информация : Audio Video Interleave
Размер файла : 1,46 Гбайт
Продолжительность : 1 ч. 46 м.
Общий поток : 1972 Кбит/сек
Программа кодирования : VirtualDubMod 1.5.10.3 | www.virtualdub-fr.org || (build 2550/release)
Библиотека кодирования : VirtualDubMod build 2550/release
Видео
Идентификатор : 0
Формат : MPEG-4 Visual
Профиль формата : Advanced Simple@L5
Настройки формата : BVOP1 / Custom Matrix
Параметр BVOP формата : 1
Параметр QPel формата : Нет
Параметр GMC формата : Без точки перехода
Параметр матрицы формата : Выборочная
Идентификатор кодека : XVID
Идентификатор кодека/Подсказка : XviD
Продолжительность : 1 ч. 46 м.
Битрейт : 1770 Кбит/сек
Ширина : 720 пикселей
Высота : 304 пикселя
Соотношение сторон : 2,35:1
Частота кадров : 23,976 (24000/1001) кадра/сек
Цветовое пространство : YUV
Субдискретизация насыщенности : 4:2:0
Битовая глубина : 8 бит
Тип развёртки : Прогрессивная
Метод сжатия : С потерями
Бит/(Пиксели*Кадры) : 0.337
Размер потока : 1,31 Гбайт (90%)
Библиотека кодирования : XviD 73
Аудио
Идентификатор : 1
Формат : AC-3
Формат/Информация : Audio Coding 3
Коммерческое название : Dolby Digital
Идентификатор кодека : 2000
Продолжительность : 1 ч. 46 м.
Вид битрейта : Постоянный
Битрейт : 192 Кбит/сек
Каналы : 2 канала
Channel layout : L R
Частота : 48,0 КГц
Частота кадров : 31,250 кадров/сек (1536 SPF)
Битовая глубина : 16 бит
Метод сжатия : С потерями
Размер потока : 146 Мбайт (10%)
Выравнивание : Разделение по промежуткам
Продолжительность промежутка : 42 мс. (1,00 видеокадр)
Время предзагрузки промежутка : 500 мс.
ServiceKind/String : Complete Main

Скриншоты


 
Показать сообщения:    
Ответить на тему

Текущее время: 19-Июн 16:45

Часовой пояс: UTC ± 0



Вы не можете начинать темы
Вы не можете отвечать на сообщения
Вы не можете редактировать свои сообщения
Вы не можете удалять свои сообщения
Вы не можете голосовать в опросах
Вы не можете прикреплять файлы к сообщениям
Вы не можете скачивать файлы

[  Время выполнения: 0.1186 сек  |  MySQL: 0.0768 сек (65%) · 6 запр.  |  сжатие Gzip: выкл  |  Память: 429.79 KB / 2.03 MB / 1.41 MB  ] |  |  |