Человек, который убил Гитлера и затем снежного человека / The Man Who Killed Hitler and Then The Bigfoot (Роберт Д. Кржиковски / Robert D. Krzykowski) [2018, США, фантастика, драма, приключения, WEB-DLRip] MVO (HDrezka Studio)

Ответить на тему
Статистика раздачи
   
 
Автор Сообщение

солнышко ®

Пол: Женский

Зарегистрированный: 5 года 3 месяца

Сообщений: 712

Создавать темы 30-Мар-2019 15:35 | #1 · Автор

[Цитировать]

Человек, который убил Гитлера и затем снежного человека / The Man Who Killed Hitler and Then The Bigfoot
Страна: США
Жанр: фантастика, драма, приключения
Год выпуска: 2018
Продолжительность: 01:37:48-Перевод: Любительский (многоголосый закадровый) | HDrezka Studio
Субтитры: нет
Оригинальная аудиодорожка: нет-Режиссер: Роберт Д. Кржиковски / Robert D. Krzykowski-В ролях: Сэм Эллиотт, Эйдан Тёрнер, Рон Ливингстон, Шон Бриджерс, Кэйтлин Фицджералд, Ларри Миллер, Эллар Колтрейн, Ризван Манжи, Марк Стегер, Анастасия Циканава-Описание: Легендарный американский ветеран по имени Кельвин Барр в годы Второй мировой войны участвовал в боевых действиях и даже убил Адольфа Гитлера. Теперь же герой живёт тихой жизнью, однако страна вновь призывает его в строй. С ним связываются ФБР, чтобы выследить и уничтожить снежного человека, поскольку существо, прячущееся в глубине канадских лесов, является носителем вируса, который может вызвать эпидемию.- -Качество видео: WEB-DLRip
Формат видео: AVI
Видео: 720x304 (2.37:1), 23.976 fps, XviD build 73 ~1936 kbps avg, 0.37 bit/pixel
Аудио: 48 kHz, AC3 Dolby Digital, 2/0 (L,R) ch, ~192 kbps-Сэмпл-

MediaInfo

Код:Формат : AVI
Формат/Информация : Audio Video Interleave
Размер файла : 1,46 Гбайт
Продолжительность : 1 ч. 37 м.
Общий поток : 2138 Кбит/сек
Программа кодирования : VirtualDubMod 1.5.10.3 | www.virtualdub-fr.org || (build 2550/release)
Библиотека кодирования : VirtualDubMod build 2550/release
Видео
Идентификатор : 0
Формат : MPEG-4 Visual
Профиль формата : Advanced Simple@L5
Настройки формата : BVOP1 / Custom Matrix
Параметр BVOP формата : 1
Параметр QPel формата : Нет
Параметр GMC формата : Без точки перехода
Параметр матрицы формата : Выборочная
Идентификатор кодека : XVID
Идентификатор кодека/Подсказка : XviD
Продолжительность : 1 ч. 37 м.
Битрейт : 1937 Кбит/сек
Ширина : 720 пикселей
Высота : 304 пикселя
Соотношение сторон : 2,35:1
Частота кадров : 23,976 (24000/1001) кадра/сек
Цветовое пространство : YUV
Субдискретизация насыщенности : 4:2:0
Битовая глубина : 8 бит
Тип развёртки : Прогрессивная
Метод сжатия : С потерями
Бит/(Пиксели*Кадры) : 0.369
Размер потока : 1,32 Гбайт (91%)
Библиотека кодирования : XviD 73
Аудио
Идентификатор : 1
Формат : AC-3
Формат/Информация : Audio Coding 3
Коммерческое название : Dolby Digital
Идентификатор кодека : 2000
Продолжительность : 1 ч. 37 м.
Вид битрейта : Постоянный
Битрейт : 192 Кбит/сек
Каналы : 2 канала
Channel layout : L R
Частота : 48,0 КГц
Частота кадров : 31,250 кадров/сек (1536 SPF)
Битовая глубина : 16 бит
Метод сжатия : С потерями
Размер потока : 134 Мбайт (9%)
Выравнивание : Разделение по промежуткам
Продолжительность промежутка : 42 мс. (1,00 видеокадр)
Время предзагрузки промежутка : 500 мс.
ServiceKind/String : Complete Main

Скриншоты


[Профиль] [ЛС]
Показать сообщения:    
Ответить на тему

Текущее время: 21-Июн 17:56

Часовой пояс: UTC ± 0



Вы не можете начинать темы
Вы не можете отвечать на сообщения
Вы не можете редактировать свои сообщения
Вы не можете удалять свои сообщения
Вы не можете голосовать в опросах
Вы не можете прикреплять файлы к сообщениям
Вы не можете скачивать файлы

[  Время выполнения: 0.0373 сек  |  MySQL: 0.0044 сек (12%) · 4 запр.  |  сжатие Gzip: выкл  |  Память: 429.79 KB / 1.99 MB / 1.41 MB  ] |  |  |