Трудно воробью (Дарья Вяткина) [2014, Россия, мультфильм, WEBRip]

Ответить на тему
Статистика раздачи
Размер:  71 MB   |    Зарегистрирован:  5 года 2 месяца   |    Скачано:  2 раза
Список скачавших: Нет

Полного источника не было: Никогда

     
 
Автор Сообщение

Гость ®

Создавать темы 18-Мар-2019 10:01 | #1

[Цитировать]

Трудно воробью
Страна: Россия
Жанр: мультфильм
Продолжительность: 00:07:54
Год выпуска: 2014
Русские субтитры: нет
Режиссёр: Дарья Вяткина
Описание: Про воробья, которому было холодно зимой на улице и он прикинулся замёрзшим, чтобы мальчик забрал его в дом...
Качество: WEBRip
Формат: AVI
Видео: 1053 kbps, 720х400 (16:9), 25.000 fps, MPEG-4 Visual (XviD)
Аудио: 192 kbps, 44.1 kHz, 2 channels, MPEG Audio (MP3)
Субтитры: отсутствуют

Подробные технические данные

General
Complete name : Трудно воробью (2014).avi
Format : AVI
Format/Info : Audio Video Interleave
File size : 71.2 MiB
Duration : 7mn 54s
Overall bit rate : 1 257 Kbps
Writing application : MEncoder SVN-r30881(20100311-gcc4.3.3)
Writing library : MPlayer
Video
ID : 0
Format : MPEG-4 Visual
Format profile : Advanced Simple@L5
Format settings, BVOP : 2
Format settings, QPel : No
Format settings, GMC : No warppoints
Format settings, Matrix : Default (H.263)
Codec ID : XVID
Codec ID/Hint : XviD
Duration : 7mn 54s
Bit rate : 1 053 Kbps
Width : 720 pixels
Height : 400 pixels
Display aspect ratio : 16:9
Original display aspect ratio : 16:9
Frame rate : 25.000 fps
Color space : YUV
Chroma subsampling : 4:2:0
Bit depth : 8 bits
Scan type : Progressive
Compression mode : Lossy
Bits/(Pixel*Frame) : 0.146
Stream size : 59.6 MiB (84%)
Writing library : XviD 1.2.1 (UTC 2008-12-04)
Audio
ID : 1
Format : MPEG Audio
Format version : Version 1
Format profile : Layer 3
Mode : Joint stereo
Codec ID : 55
Codec ID/Hint : MP3
Duration : 7mn 54s
Bit rate mode : Constant
Bit rate : 192 Kbps
Channel(s) : 2 channels
Sampling rate : 44.1 KHz
Compression mode : Lossy
Delay relative to video : 40ms
Stream size : 10.9 MiB (15%)
Alignment : Aligned on interleaves
Interleave, duration : 26 ms (0.65 video frame)
Interleave, preload duration : 522 ms
Writing library : LAME3.98

Скриншоты

Трудно воробью (Дарья Вяткина) [2014, Россия, мультфильм, WEBRip] [cybertorrent.pro-164].torrent 
Торрент: Зарегистрирован [ 2019-03-18 10:04 ]

info_hash: 085BD07FFCF6EEC2A4D040C3FB5F69B0AB4FE74F

Скачать .torrent

Скачать

12 KB

Статус: проверено
Скачано: 2 раза
Размер: 71 MB
 
Показать сообщения:    
Ответить на тему

Текущее время: 16-Июн 11:40

Часовой пояс: UTC ± 0



Вы не можете начинать темы
Вы не можете отвечать на сообщения
Вы не можете редактировать свои сообщения
Вы не можете удалять свои сообщения
Вы не можете голосовать в опросах
Вы не можете прикреплять файлы к сообщениям
Вы можете скачивать файлы

[  Время выполнения: 0.0740 сек  |  MySQL: 0.0152 сек (21%) · 8 запр.  |  сжатие Gzip: выкл  |  Память: 429.79 KB / 2.34 MB / 1.48 MB  ] |  |  |