Три встречи (Сергей Юткевич, Всеволод Пудовкин, Александр Птушко) [1948, драма, SATRip]

Ответить на тему
Статистика раздачи
Размер:  743 MB   |    Зарегистрирован:  5 года 3 месяца   |    Скачано:  4 раза
Список скачавших: Нет

Полного источника не было: Никогда

     
 
Автор Сообщение

Гость ®

Создавать темы 03-Апр-2019 17:08 | #1

[Цитировать]

Три встречи
Год выпуска: 1948
Жанр: драма
Продолжительность: 01:18:28.359 (117709 frames)
Субтитры: нет
Режиссер: Сергей Юткевич, Всеволод Пудовкин, Александр Птушко
В ролях: Тамара Макарова, Борис Чирков, Николай Крючков, Юлия Борисова, Клара Лучко, Юрий Любимов
Описание: Участники Великой Отечественной войны майор Корнев, старшина Самосеев, старший лейтенант Рудников и лейтенант Бэла Мухтарова возвращаются с фронта домой. Каждого ждет семья, товарищи, любимая работа.
Качество: SATRip
Формат: AVI
Видео кодек: XviD
Аудио кодек: МР3
Видео: 640x448 (1.43:1), 25 fps, XviD build 73 ~1186 kbps avg, 0.17 bit/pixel
Аудио: 48 kHz, MPEG Layer 3, 2 ch, ~128.00 kbps avg

Медиаинфо

General
Complete name : E:\004 Мои раздачи\3 встречи 745\3_vstrechi_745_by_bm11.avi
Format : AVI
Format/Info : Audio Video Interleave
File size : 743 MiB
Duration : 1h 18mn
Overall bit rate : 1 324 Kbps
Director : bm11
Writing application : VirtualDubMod 1.5.10.3 | www.virtualdub-fr.org || (build 2550/release)
Video
ID : 0
Format : MPEG-4 Visual
Format profile : Advanced Simple@L5
Format settings, BVOP : 1
Format settings, QPel : No
Format settings, GMC : No warppoints
Format settings, Matrix : Custom
Codec ID : XVID
Codec ID/Hint : XviD
Duration : 1h 18mn
Bit rate : 1 186 Kbps
Width : 640 pixels
Height : 448 pixels
Display aspect ratio : 1.429
Frame rate : 25.000 fps
Color space : YUV
Chroma subsampling : 4:2:0
Bit depth : 8 bits
Scan type : Progressive
Compression mode : Lossy
Bits/(Pixel*Frame) : 0.165
Stream size : 666 MiB (90%)
Writing library : XviD 73
Audio
ID : 1
Format : MPEG Audio
Format version : Version 1
Format profile : Layer 3
Codec ID : 55
Codec ID/Hint : MP3
Duration : 1h 18mn
Bit rate mode : Constant
Bit rate : 128 Kbps
Channel(s) : 2 channels
Sampling rate : 48.0 KHz
Compression mode : Lossy
Stream size : 71.8 MiB (10%)
Alignment : Aligned on interleaves
Interleave, duration : 40 ms (1.00 video frame)
Interleave, preload duratio : 504 ms
Writing library : LAME3.99r
Encoding settings : -m s -V 4 -q 2 -lowpass 17 -b 128
Три встречи (Сергей Юткевич, Всеволод Пудовкин, Александр Птушко) [1948, драма, SATRip] [cybertorrent.pro-1720].torrent 
Торрент: Зарегистрирован [ 2019-04-03 17:08 ]

info_hash: C13C4B917DA51ADA4FB75FA2D106A1ECC11833AF

Скачать .torrent

Скачать

15 KB

Статус: проверено
Скачано: 4 раза
Размер: 743 MB
 
Показать сообщения:    
Ответить на тему

Текущее время: 23-Июл 12:32

Часовой пояс: UTC ± 0



Вы не можете начинать темы
Вы не можете отвечать на сообщения
Вы не можете редактировать свои сообщения
Вы не можете удалять свои сообщения
Вы не можете голосовать в опросах
Вы не можете прикреплять файлы к сообщениям
Вы можете скачивать файлы

[  Время выполнения: 0.1114 сек  |  MySQL: 0.0672 сек (60%) · 10 запр.  |  сжатие Gzip: выкл  |  Память: 429.79 KB / 2.35 MB / 1.5 MB  ] |  |  |