Мистериум. Журнал 64 / Journal 64 (Кристоффер Боэ / Christoffer Boe) [2018, Дания, Германия, триллер, криминал, детектив, HDRip] MVO (HDrezka Studio)

Ответить на тему
Статистика раздачи
Размер:  1.46 GB   |    Зарегистрирован:  5 года   |    Скачано:  1 раз
Список скачавших: Нет

Полного источника не было: Никогда

     
 
Автор Сообщение

солнышко ®

Пол: Женский

Зарегистрированный: 5 года 1 месяц

Сообщений: 712

Создавать темы 04-Апр-2019 15:32 | #1 · Автор

[Цитировать]

Мистериум. Журнал 64 / Journal 64
Страна: Дания, Германия
Жанр: триллер, криминал, детектив
Год выпуска: 2018
Продолжительность: 01:57:54-Перевод: Любительский (многоголосый закадровый) | HDrezka Studio
Субтитры: нет
Оригинальная аудиодорожка: нет-Режиссер: Кристоффер Боэ / Christoffer Boe-В ролях: Фарес Фарес, Николай Ли Каас, Николас Бро, Андерс Хове, Эллиотт Кроссет Хов, Андерс Юль, Сёрен Пильмарк, Фанни Борнедал, Вибеке Хаструп-Описание: Детектив копенгагенской полиции Карл Мерк и его помощник Ассад обнаруживают в заброшенной квартире три мумифицированных трупа. Тела рассажены за обеденным столом, где стоит еще один стул. Расследование приводит Карла к женской клинике на необитаемом острове, в которой проводились жестокие эксперименты.- -Качество видео: HDRip
Формат видео: AVI
Видео: 720x304 (2.37:1), 24.000 fps, XviD build 73 ~1567 kbps avg, 0.30 bit/pixel
Аудио: 48 kHz, AC3 Dolby Digital, 2/0 (L,R) ch, ~192 kbps-Сэмпл-

MediaInfo

Код:Формат : AVI
Формат/Информация : Audio Video Interleave
Размер файла : 1,46 Гбайт
Продолжительность : 1 ч. 57 м.
Общий поток : 1769 Кбит/сек
Программа кодирования : VirtualDubMod 1.5.10.3 | www.virtualdub-fr.org || (build 2550/release)
Библиотека кодирования : VirtualDubMod build 2550/release
Видео
Идентификатор : 0
Формат : MPEG-4 Visual
Профиль формата : Advanced Simple@L5
Настройки формата : BVOP1 / Custom Matrix
Параметр BVOP формата : 1
Параметр QPel формата : Нет
Параметр GMC формата : Без точки перехода
Параметр матрицы формата : Выборочная
Идентификатор кодека : XVID
Идентификатор кодека/Подсказка : XviD
Продолжительность : 1 ч. 57 м.
Битрейт : 1568 Кбит/сек
Ширина : 720 пикселей
Высота : 304 пикселя
Соотношение сторон : 2,35:1
Частота кадров : 24,000 кадра/сек
Цветовое пространство : YUV
Субдискретизация насыщенности : 4:2:0
Битовая глубина : 8 бит
Тип развёртки : Прогрессивная
Метод сжатия : С потерями
Бит/(Пиксели*Кадры) : 0.298
Размер потока : 1,29 Гбайт (89%)
Библиотека кодирования : XviD 73
Аудио
Идентификатор : 1
Формат : AC-3
Формат/Информация : Audio Coding 3
Коммерческое название : Dolby Digital
Идентификатор кодека : 2000
Продолжительность : 1 ч. 57 м.
Вид битрейта : Постоянный
Битрейт : 192 Кбит/сек
Каналы : 2 канала
Channel layout : L R
Частота : 48,0 КГц
Частота кадров : 31,250 кадров/сек (1536 SPF)
Битовая глубина : 16 бит
Метод сжатия : С потерями
Размер потока : 162 Мбайт (11%)
Выравнивание : Разделение по промежуткам
Продолжительность промежутка : 42 мс. (1,00 видеокадр)
Время предзагрузки промежутка : 500 мс.
ServiceKind/String : Complete Main

Скриншоты


Мистериум. Журнал 64 / Journal 64 (Кристоффер Боэ / Christoffer Boe) [2018, Дания, Германия, триллер, криминал, детектив, HDRip] MVO (HDrezka Studio) [cybertorrent.pro-1746].torrent 
Торрент: Зарегистрирован [ 2019-04-04 15:32 ]

info_hash: 9A50B40B3980CD8F672353278EEDD2E07155A3FD

Скачать .torrent

Скачать

15 KB

Статус: проверено
Скачано: 1 раз
Размер: 1.46 GB
[Профиль] [ЛС]
Показать сообщения:    
Ответить на тему

Текущее время: 18-Апр 06:58

Часовой пояс: UTC ± 0



Вы не можете начинать темы
Вы не можете отвечать на сообщения
Вы не можете редактировать свои сообщения
Вы не можете удалять свои сообщения
Вы не можете голосовать в опросах
Вы не можете прикреплять файлы к сообщениям
Вы можете скачивать файлы

[  Время выполнения: 0.0478 сек  |  MySQL: 0.0130 сек (27%) · 8 запр.  |  сжатие Gzip: выкл  |  Память: 429.79 KB / 2.37 MB / 1.51 MB  ] |  |  |