Шутки в сторону 2: Миссия в Майами / Le flic de Belleville (Рашид Бушареб / Rachid Bouchareb) [2018, Франция, комедия, HDRip] Dub

Ответить на тему
Статистика раздачи
   
 
Автор Сообщение

солнышко ®

Пол: Женский

Зарегистрированный: 5 года 3 месяца

Сообщений: 712

Создавать темы 05-Апр-2019 15:58 | #1 · Автор

[Цитировать]

Шутки в сторону 2: Миссия в Майами / Le flic de Belleville
«В тихом омуте копы водятся»
- Год выхода: 2018
Страна: Франция
Производство: Metropolitan Filmexport
Жанр: комедия
Продолжительность: 01:51:17
Перевод: Профессиональный (полное дублирование)
Субтитры: нет-Режиссер:
Рашид Бушареб / Rachid Bouchareb-В ролях:
Омар Си, Луис Гусман, Биюна, Дьем Нгуйен, Эрик Эбони, Исака Савадого, Маймуна Гуйе, Жюли Ферье, Франк Гастамбид, Себастьен Вандерберг-О фильме:
Безбашенный коп-раздолбай приезжает в рай на Земле — Майами, где знакомится с еще более чокнутым местным копом. Эти двое нарушат все возможные законы и устроят настоящий беспредел, чтобы раскрыть глобальную преступную сеть, опутавшую с виду спокойный и респектабельный Майами.-Релиз групп | | IMDB | КиноПоиск | Сэмпл |-Качество: HDRip
Формат: AVI
Видео: 720x304 (2.37:1), 23.976 fps, XviD build 67 ~1481 kbps avg, 0.28 bit/pixel
Аудио: 48 kHz, AC3 Dolby Digital, 3/2 (L,C,R,l,r) + LFE ch, ~384 kbps avg - iTunes Russia-

Скриншоты

-

MediaInfo

Код:Полное имя : G:\Shutki_v_storonu_2018_HDRip_iT_by_Dalemake.avi
Формат : AVI
Формат/Информация : Audio Video Interleave
Размер файла : 1,46 Гбайт
Продолжительность : 1 ч. 51 м.
Общий поток : 1875 Кбит/сек
Программа кодирования : VirtualDubMod 1.5.10.3 | www.virtualdub-fr.org || (build 2550/release)
Библиотека кодирования : VirtualDubMod build 2550/release
Видео
Идентификатор : 0
Формат : MPEG-4 Visual
Профиль формата : Advanced Simple@L5
Параметр BVOP формата : 1
Параметр QPel формата : Нет
Параметр GMC формата : Без точки перехода
Параметр матрицы формата : Выборочная
Идентификатор кодека : XVID
Идентификатор кодека/Подсказка : XviD
Продолжительность : 1 ч. 51 м.
Битрейт : 1482 Кбит/сек
Ширина : 720 пикселей
Высота : 304 пикселя
Соотношение сторон : 2,35:1
Частота кадров : 23,976 кадра/сек
Цветовое пространство : YUV
Субдискретизация насыщенности : 4:2:0
Битовая глубина : 8 бит
Тип развёртки : Прогрессивная
Метод сжатия : С потерями
Бит/(Пиксели*Кадры) : 0.282
Размер потока : 1,15 Гбайт (79%)
Библиотека кодирования : XviD 67
Аудио
Идентификатор : 1
Формат : AC-3
Формат/Информация : Audio Coding 3
Расширение режима : CM (complete main)
Параметр Endianness формата : Big
Идентификатор кодека : 2000
Продолжительность : 1 ч. 51 м.
Вид битрейта : Постоянный
Битрейт : 384 Кбит/сек
Каналы : 6 каналов
Расположение каналов : Front: L C R, Side: L R, LFE
Частота : 48,0 КГц
Метод сжатия : С потерями
Размер потока : 306 Мбайт (20%)
Выравнивание : Разделение по промежуткам
Продолжительность промежутка : 42 мс. (1,00 видеокадр)
Время предзагрузки промежутка : 500 мс.
-
[Профиль] [ЛС]
Показать сообщения:    
Ответить на тему

Текущее время: 16-Июн 11:15

Часовой пояс: UTC ± 0



Вы не можете начинать темы
Вы не можете отвечать на сообщения
Вы не можете редактировать свои сообщения
Вы не можете удалять свои сообщения
Вы не можете голосовать в опросах
Вы не можете прикреплять файлы к сообщениям
Вы не можете скачивать файлы

[  Время выполнения: 0.4740 сек  |  MySQL: 0.0227 сек (5%) · 4 запр.  |  сжатие Gzip: выкл  |  Память: 429.79 KB / 1.99 MB / 1.4 MB  ] |  |  |