Ван Гоги (Сергей Ливнев) [2018, драма, WEB-DLRip]

Ответить на тему
Статистика раздачи
Размер:  1.46 GB   |    Зарегистрирован:  5 года   |    Скачано:  0 раза
Список скачавших: Нет

Полного источника не было: Никогда

     
 
Автор Сообщение

Гость ®

Создавать темы 07-Апр-2019 16:52 | #1

[Цитировать]

Ван Гоги
Страна: Россия
Жанр: драма
Год выпуска: 2018
Продолжительность: 01:38:34
Субтитры: нет-Режиссер: Сергей Ливнев-В ролях: Алексей Серебряков, Даниэль Ольбрыхский, Елена Коренева, Полина Агуреева, Наталья Негода, Александр Сирин, Светлана Немоляева, Ольга Остроумова, Ёла Санько, Евгений Ткачук-Описание: Отец — прославленный дирижер. Сын — талантливый, но неизвестный художник. Их отношения давно превратились в любовь-ненависть, в которой больше ненависти, чем любви. Они живут на разных концах света и стараются не видеться без необходимости. Когда такая необходимость неожиданно возникает, самые близкие и одновременно далекие люди должны будут пройти непростой путь примирения.- -Качество видео: WEB-DLRip
Формат видео: AVI
Видео: 704x400 (1.76:1), 25 fps, XviD build 73 ~1721 kbps avg, 0.24 bit/pixel
Аудио: 48 kHz, AC3 Dolby Digital, 3/2 (L,C,R,l,r) + LFE ch, ~384 kbps - iTunes-Сэмпл-

MediaInfo

Код:Формат : AVI
Формат/Информация : Audio Video Interleave
Размер файла : 1,46 Гбайт
Продолжительность : 1 ч. 38 м.
Общий поток : 2116 Кбит/сек
Название фильма : Ван Гоги_2018_WEB-DLRip
Программа кодирования : VirtualDubMod 1.5.10.3 | www.virtualdub-fr.org || (build 2550/release) VirtualDubMod build 2550/release
Авторское право : порошков
Видео
Идентификатор : 0
Формат : MPEG-4 Visual
Профиль формата : Advanced Simple@L5
Настройки формата : BVOP1 / Custom Matrix
Параметр BVOP формата : 1
Параметр QPel формата : Нет
Параметр GMC формата : Без точки перехода
Параметр матрицы формата : Выборочная
Идентификатор кодека : XVID
Идентификатор кодека/Подсказка : XviD
Продолжительность : 1 ч. 38 м.
Битрейт : 1722 Кбит/сек
Ширина : 704 пикселя
Высота : 400 пикселей
Соотношение сторон : 16:9
Частота кадров : 25,000 кадров/сек
Цветовое пространство : YUV
Субдискретизация насыщенности : 4:2:0
Битовая глубина : 8 бит
Тип развёртки : Прогрессивная
Метод сжатия : С потерями
Бит/(Пиксели*Кадры) : 0.245
Размер потока : 1,19 Гбайт (81%)
Библиотека кодирования : XviD 73
Аудио
Идентификатор : 1
Формат : AC-3
Формат/Информация : Audio Coding 3
Коммерческое название : Dolby Digital
Идентификатор кодека : 2000
Продолжительность : 1 ч. 38 м.
Вид битрейта : Постоянный
Битрейт : 384 Кбит/сек
Каналы : 6 каналов
Channel layout : L R C LFE Ls Rs
Частота : 48,0 КГц
Частота кадров : 31,250 кадров/сек (1536 SPF)
Битовая глубина : 16 бит
Метод сжатия : С потерями
Размер потока : 271 Мбайт (18%)
Выравнивание : Разделение по промежуткам
Продолжительность промежутка : 40 мс. (1,00 видеокадр)
Время предзагрузки промежутка : 500 мс.
Язык : Не определен
ServiceKind/String : Complete Main

Скриншоты


Ван Гоги (Сергей Ливнев) [2018, драма, WEB-DLRip] [cybertorrent.pro-1840].torrent 
Торрент: Зарегистрирован [ 2019-04-07 16:52 ]

info_hash: B9C660F8103D6D14AA01EB23A0560BEEDCE3376D

Скачать .torrent

Скачать

15 KB

Статус: проверено
Скачано: 0 раза
Размер: 1.46 GB
 
Показать сообщения:    
Ответить на тему

Текущее время: 18-Апр 07:57

Часовой пояс: UTC ± 0



Вы не можете начинать темы
Вы не можете отвечать на сообщения
Вы не можете редактировать свои сообщения
Вы не можете удалять свои сообщения
Вы не можете голосовать в опросах
Вы не можете прикреплять файлы к сообщениям
Вы можете скачивать файлы

[  Время выполнения: 0.1775 сек  |  MySQL: 0.0899 сек (51%) · 10 запр.  |  сжатие Gzip: выкл  |  Память: 429.79 KB / 2.36 MB / 1.51 MB  ] |  |  |