Офисный беспредел / Office Uprising (Лин Одинг / Lin Oeding) [2018, США, ужасы, комедия, боевик, BDRip] Dub (iTunes)

Ответить на тему
Статистика раздачи
Размер:  1.46 GB   |    Зарегистрирован:  5 года   |    Скачано:  2 раза
Список скачавших: Нет

Полного источника не было: Никогда

     
 
Автор Сообщение

солнышко ®

Пол: Женский

Зарегистрированный: 5 года 1 месяц

Сообщений: 712

Создавать темы 12-Апр-2019 16:54 | #1 · Автор

[Цитировать]

Офисный беспредел / Office Uprising
Страна: США
Жанр: ужасы, комедия, боевик
Год выпуска: 2018
Продолжительность: 01:28:31-Перевод: Профессиональный (дублированный) | iTunes
Субтитры: нет
Оригинальная аудиодорожка: нет-Режиссер: Лин Одинг / Lin Oeding-В ролях: Брентон Туэйтс, Джейн Леви, Каран Сони, Закари Ливай, Грегг Генри, Курт Фуллер, Йен Хардинг, Сэм Дэйли, Алан Ричсон, Кори Уинстон-Описание: Глава крупной корпорации, мечтая о нечеловеческой работоспособности своих менеджеров, напоил их секретным энергетическим напитком. Однако босс не ожидал побочного эффекта — подчиненные стали гиперагрессивными. И лишь один раздолбай, как обычно опоздав на работу, остался без порции энергетика. Теперь ему предстоит пережить настоящий офисный беспредел…- -Качество видео: BDRip | Office.Uprising.2018.BDREMUX.1080p.seleZen
Формат видео: AVI
Видео: 720x304 (2.37:1), 24.000 fps, XviD build 73 ~1960 kbps avg, 0.37 bit/pixel
Аудио: 48 kHz, AC3 Dolby Digital, 3/2 (L,C,R,l,r) + LFE ch, ~384 kbps-Сэмпл-

MediaInfo

Код:Формат : AVI
Формат/Информация : Audio Video Interleave
Размер файла : 1,46 Гбайт
Продолжительность : 1 ч. 28 м.
Общий поток : 2354 Кбит/сек
Название фильма : Офисный беспредел_2018_BDRip
Программа кодирования : VirtualDubMod 1.5.10.3 | www.virtualdub-fr.org || (build 2550/release) VirtualDubMod build 2550/release
Авторское право : порошков
Видео
Идентификатор : 0
Формат : MPEG-4 Visual
Профиль формата : Advanced Simple@L5
Настройки формата : BVOP1 / Custom Matrix
Параметр BVOP формата : 1
Параметр QPel формата : Нет
Параметр GMC формата : Без точки перехода
Параметр матрицы формата : Выборочная
Идентификатор кодека : XVID
Идентификатор кодека/Подсказка : XviD
Продолжительность : 1 ч. 28 м.
Битрейт : 1960 Кбит/сек
Ширина : 720 пикселей
Высота : 304 пикселя
Соотношение сторон : 2,35:1
Частота кадров : 24,000 кадра/сек
Цветовое пространство : YUV
Субдискретизация насыщенности : 4:2:0
Битовая глубина : 8 бит
Тип развёртки : Прогрессивная
Метод сжатия : С потерями
Бит/(Пиксели*Кадры) : 0.373
Размер потока : 1,21 Гбайт (83%)
Библиотека кодирования : XviD 73
Аудио
Идентификатор : 1
Формат : AC-3
Формат/Информация : Audio Coding 3
Коммерческое название : Dolby Digital
Идентификатор кодека : 2000
Продолжительность : 1 ч. 28 м.
Вид битрейта : Постоянный
Битрейт : 384 Кбит/сек
Каналы : 6 каналов
Channel layout : L R C LFE Ls Rs
Частота : 48,0 КГц
Частота кадров : 31,250 кадров/сек (1536 SPF)
Битовая глубина : 16 бит
Метод сжатия : С потерями
Размер потока : 243 Мбайт (16%)
Выравнивание : Разделение по промежуткам
Продолжительность промежутка : 42 мс. (1,00 видеокадр)
Время предзагрузки промежутка : 500 мс.
Язык : Русский
ServiceKind/String : Complete Main

Скриншоты


Офисный беспредел / Office Uprising (Лин Одинг / Lin Oeding) [2018, США, ужасы, комедия, боевик, BDRip] Dub (iTunes) [cybertorrent.pro-1939].torrent 
Торрент: Зарегистрирован [ 2019-04-12 16:55 ]

info_hash: F1F8CB39E95A96D8AACD87CDF5616B1D11F0FDA9

Скачать .torrent

Скачать

15 KB

Статус: проверено
Скачано: 2 раза
Размер: 1.46 GB
[Профиль] [ЛС]
Показать сообщения:    
Ответить на тему

Текущее время: 23-Апр 05:07

Часовой пояс: UTC ± 0



Вы не можете начинать темы
Вы не можете отвечать на сообщения
Вы не можете редактировать свои сообщения
Вы не можете удалять свои сообщения
Вы не можете голосовать в опросах
Вы не можете прикреплять файлы к сообщениям
Вы можете скачивать файлы

[  Время выполнения: 0.0410 сек  |  MySQL: 0.0107 сек (26%) · 8 запр.  |  сжатие Gzip: выкл  |  Память: 429.79 KB / 2.37 MB / 1.52 MB  ] |  |  |