Не состарится / Never Grow Old (Иван Кэвэна / Ivan Kavanagh) [2019, Ирландия, боевик, триллер, драма, вестерн, WEB-DLRip] MVO (HDRezka Studio) + Original (Eng) + Sub (Rus, Eng)

Ответить на тему
Статистика раздачи
   
 
Автор Сообщение

Гость ®

Создавать темы 12-Апр-2019 16:54 | #1

[Цитировать]

Не состарится / Never Grow Old- Год выхода: 2019
Страна: Ирландия
Жанр: боевик, триллер, драма, вестерн
Продолжительность: 01:40:12
Перевод: Любительский (многоголосый закадровый) HDRezka Studio
Субтитры: Русские (полные), Английские (полные) (внешние *.srt)
Оригинальная аудиодорожка: Английская-Режиссер:
Иван Кэвэна / Ivan Kavanagh-В ролях:
Эмиль Хирш, Джон Кьюсак, Антония Кэмпбелл-Хьюз, Дэниэл Уэбб, Дебора Франсуа, Пол Рейд, Анн Косенс, Блейк Беррис, Пол Ронан, Тим Ахерн-О фильме:
В небольшой набожный городок прибывает банда убийц и воров и начинает сеять смерть и хаос. В плюсе остаётся только местный гробовщик, хоронящий жертв. Но в итоге он должен решить, что для него важнее — сохранность семьи или деньги.-Релиз групп | | IMDB | КиноПоиск | Сэмпл |-Качество: WEB-DLRip
Формат: AVI
Видео: 704x288 (2.44:1), 23.976 fps, XviD build 67 ~1666 kbps avg, 0.34 bit/pixel
Аудио #1: 48 kHz, AC3 Dolby Digital, 2/0 (L,R) ch, ~192 kbps avg (RUS)
Аудио #2: 48 kHz, AC3 Dolby Digital, 2/0 (L,R) ch, ~192 kbps avg (ENG)-

Скриншоты

-

MediaInfo

Код:Полное имя : D:\Ne_sostaritsya_2019_WEB-DLRip_MVO_by_Dalemake.avi
Формат : AVI
Формат/Информация : Audio Video Interleave
Размер файла : 1,45 Гбайт
Продолжительность : 1 ч. 40 м.
Общий поток : 2065 Кбит/сек
Программа кодирования : VirtualDubMod 1.5.10.3 | www.virtualdub-fr.org || (build 2550/release)
Библиотека кодирования : VirtualDubMod build 2550/release
Видео
Идентификатор : 0
Формат : MPEG-4 Visual
Профиль формата : Advanced Simple@L5
Параметр BVOP формата : 1
Параметр QPel формата : Нет
Параметр GMC формата : Без точки перехода
Параметр матрицы формата : Выборочная
Идентификатор кодека : XVID
Идентификатор кодека/Подсказка : XviD
Продолжительность : 1 ч. 40 м.
Битрейт : 1667 Кбит/сек
Ширина : 704 пикселя
Высота : 288 пикселей
Соотношение сторон : 2,40:1
Частота кадров : 23,976 кадра/сек
Цветовое пространство : YUV
Субдискретизация насыщенности : 4:2:0
Битовая глубина : 8 бит
Тип развёртки : Прогрессивная
Метод сжатия : С потерями
Бит/(Пиксели*Кадры) : 0.343
Размер потока : 1,17 Гбайт (81%)
Библиотека кодирования : XviD 67
Аудио #1
Идентификатор : 1
Формат : AC-3
Формат/Информация : Audio Coding 3
Расширение режима : CM (complete main)
Параметр Endianness формата : Big
Идентификатор кодека : 2000
Продолжительность : 1 ч. 40 м.
Вид битрейта : Постоянный
Битрейт : 192 Кбит/сек
Каналы : 2 канала
Расположение каналов : Front: L R
Частота : 48,0 КГц
Битовая глубина : 16 бит
Метод сжатия : С потерями
Размер потока : 138 Мбайт (9%)
Выравнивание : Разделение по промежуткам
Продолжительность промежутка : 42 мс. (1,00 видеокадр)
Время предзагрузки промежутка : 500 мс.
Аудио #2
Идентификатор : 2
Формат : AC-3
Формат/Информация : Audio Coding 3
Расширение режима : CM (complete main)
Параметр Endianness формата : Big
Идентификатор кодека : 2000
Продолжительность : 1 ч. 40 м.
Вид битрейта : Постоянный
Битрейт : 192 Кбит/сек
Каналы : 2 канала
Расположение каналов : Front: L R
Частота : 48,0 КГц
Битовая глубина : 16 бит
Метод сжатия : С потерями
Размер потока : 138 Мбайт (9%)
Выравнивание : Разделение по промежуткам
Продолжительность промежутка : 42 мс. (1,00 видеокадр)
Время предзагрузки промежутка : 500 мс.
-
 
Показать сообщения:    
Ответить на тему

Текущее время: 20-Май 10:15

Часовой пояс: UTC ± 0



Вы не можете начинать темы
Вы не можете отвечать на сообщения
Вы не можете редактировать свои сообщения
Вы не можете удалять свои сообщения
Вы не можете голосовать в опросах
Вы не можете прикреплять файлы к сообщениям
Вы не можете скачивать файлы

[  Время выполнения: 0.1024 сек  |  MySQL: 0.0701 сек (68%) · 6 запр.  |  сжатие Gzip: выкл  |  Память: 429.79 KB / 2.03 MB / 1.41 MB  ] |  |  |