Любовницы (Елена Хазанова) [2019, комедия, WEB-DLRip]

Ответить на тему
Статистика раздачи
Размер:  1.44 GB   |    Зарегистрирован:  5 года 3 месяца   |    Скачано:  1 раз
Список скачавших: Нет

Полного источника не было: Никогда

     
 
Автор Сообщение

Гость ®

Создавать темы 14-Апр-2019 15:48 | #1

[Цитировать]

Любовницы
«На тропе войны!»
- Год выхода: 2019
Страна: Россия
Жанр: комедия
Продолжительность: 01:37:21-Режиссер:
Елена Хазанова-В ролях:
Паулина Андреева, Александра Бортич, Юлия Александрова, Мария Шалаева, Сергей Гармаш, Гоша Куценко, Юрий Стоянов, Максим Лагашкин, Александр Робак, Владимир Мишуков-О фильме:
Три обычные москвички - медсестра, студентка и актриса - случайно встречаются в баре и выясняют, что все они только что расстались со своими мужчинами, которые оказались связаны узами брака. Для начала девушки решают отомстить своим бывшим. Но, когда цель достигнута, у подруг появляется идея: используя свою смекалку и артистические способности, помогать таким же как они, сёстрам по несчастью, выводить на чистую воду неверных мужей и наказывать двуличных любовников. Ведь таких, как они - тысячи.-Релиз групп | | КиноПоиск | Сэмпл |-Качество: WEB-DLRip
Формат: AVI
Видео: 720x304 (2.37:1), 24.000 fps, XviD build 67 ~1721 kbps avg, 0.33 bit/pixel
Аудио: 48 kHz, AC3 Dolby Digital, 3/2 (L,C,R,l,r) + LFE ch, ~384 kbps avg-

Скриншоты

-

MediaInfo

Код:Полное имя : D:\Lubovnicy_2019_WEB-DLRip_iT_by_Dalemake.avi
Формат : AVI
Формат/Информация : Audio Video Interleave
Размер файла : 1,44 Гбайт
Продолжительность : 1 ч. 37 м.
Общий поток : 2115 Кбит/сек
Программа кодирования : VirtualDubMod 1.5.10.3 | www.virtualdub-fr.org || (build 2550/release)
Библиотека кодирования : VirtualDubMod build 2550/release
Видео
Идентификатор : 0
Формат : MPEG-4 Visual
Профиль формата : Advanced Simple@L5
Параметр BVOP формата : 1
Параметр QPel формата : Нет
Параметр GMC формата : Без точки перехода
Параметр матрицы формата : Выборочная
Идентификатор кодека : XVID
Идентификатор кодека/Подсказка : XviD
Продолжительность : 1 ч. 37 м.
Битрейт : 1722 Кбит/сек
Ширина : 720 пикселей
Высота : 304 пикселя
Соотношение сторон : 2,35:1
Частота кадров : 24,000 кадра/сек
Цветовое пространство : YUV
Субдискретизация насыщенности : 4:2:0
Битовая глубина : 8 бит
Тип развёртки : Прогрессивная
Метод сжатия : С потерями
Бит/(Пиксели*Кадры) : 0.328
Размер потока : 1,17 Гбайт (81%)
Библиотека кодирования : XviD 67
Аудио
Идентификатор : 1
Формат : AC-3
Формат/Информация : Audio Coding 3
Расширение режима : CM (complete main)
Параметр Endianness формата : Big
Идентификатор кодека : 2000
Продолжительность : 1 ч. 37 м.
Вид битрейта : Постоянный
Битрейт : 384 Кбит/сек
Каналы : 6 каналов
Расположение каналов : Front: L C R, Side: L R, LFE
Частота : 48,0 КГц
Метод сжатия : С потерями
Размер потока : 267 Мбайт (18%)
Выравнивание : Разделение по промежуткам
Продолжительность промежутка : 42 мс. (1,00 видеокадр)
Время предзагрузки промежутка : 500 мс.
-
Любовницы (Елена Хазанова) [2019, комедия, WEB-DLRip] [cybertorrent.pro-2033].torrent 
Торрент: Зарегистрирован [ 2019-04-14 15:48 ]

info_hash: 6E1589EB9865B0DDDE4D317088FFCFF8446503AF

Скачать .torrent

Скачать

15 KB

Статус: проверено
Скачано: 1 раз
Размер: 1.44 GB
 
Показать сообщения:    
Ответить на тему

Текущее время: 15-Июл 05:00

Часовой пояс: UTC ± 0



Вы не можете начинать темы
Вы не можете отвечать на сообщения
Вы не можете редактировать свои сообщения
Вы не можете удалять свои сообщения
Вы не можете голосовать в опросах
Вы не можете прикреплять файлы к сообщениям
Вы можете скачивать файлы

[  Время выполнения: 0.0482 сек  |  MySQL: 0.0131 сек (27%) · 8 запр.  |  сжатие Gzip: выкл  |  Память: 429.79 KB / 2.36 MB / 1.51 MB  ] |  |  |