Купава (Оксана Черкасова) [2014, Россия, мультфильм, WEBRip]

Ответить на тему
Статистика раздачи
Размер:  171 MB   |    Зарегистрирован:  4 года 11 месяца   |    Скачано:  5 раза
Список скачавших: Нет

Полного источника не было: Никогда

     
 
Автор Сообщение

Гость ®

Создавать темы 21-Апр-2019 16:40 | #1

[Цитировать]

Купава
Страна: Россия
Жанр: мультфильм
Продолжительность: 00:13:23
Год выпуска: 2014
Русские субтитры: нет
Режиссёр: Оксана Черкасова
Описание: История о том, как одна нескладная рыжая девчушка случайно повстречалась на лесной тропинке с деревенской колдуньей. Путём удивительных превращений старушка помогла девице обрести уверенность в себе.
Доп. информация: Диплом за последовательную удачную разработку фольклорных мотивов - Фестиваль в Суздале (2015)

Качество: WEBRip
Формат: AVI
Видео: 1581 kbps, 720х400 (16:9), 25.000 fps, MPEG-4 Visual (XviD)
Аудио: 192 kbps, 44.1 kHz, 2 channels, MPEG Audio (MP3)
Субтитры: отсутствуют

Подробные технические данные

General
Complete name : Купава (2014).avi
Format : AVI
Format/Info : Audio Video Interleave
File size : 171 MiB
Duration : 13mn 23s
Overall bit rate : 1 786 Kbps
Writing application : Lavf57.41.100
Writing library : VirtualDub build 35491/release
Video
ID : 0
Format : MPEG-4 Visual
Format profile : Advanced Simple@L5
Format settings, BVOP : 2
Format settings, QPel : No
Format settings, GMC : No warppoints
Format settings, Matrix : Default (H.263)
Codec ID : XVID
Codec ID/Hint : XviD
Duration : 13mn 23s
Bit rate : 1 581 Kbps
Width : 720 pixels
Height : 400 pixels
Display aspect ratio : 16:9
Frame rate : 25.000 fps
Color space : YUV
Chroma subsampling : 4:2:0
Bit depth : 8 bits
Scan type : Progressive
Compression mode : Lossy
Bits/(Pixel*Frame) : 0.220
Stream size : 152 MiB (89%)
Writing library : XviD 73
Audio
ID : 1
Format : MPEG Audio
Format version : Version 1
Format profile : Layer 3
Mode : Joint stereo
Mode extension : MS Stereo
Codec ID : 55
Codec ID/Hint : MP3
Duration : 13mn 23s
Bit rate mode : Constant
Bit rate : 192 Kbps
Channel(s) : 2 channels
Sampling rate : 44.1 KHz
Compression mode : Lossy
Stream size : 18.4 MiB (11%)
Alignment : Aligned on interleaves
Interleave, duration : 26 ms (0.65 video frame)
Interleave, preload duration : 522 ms
Writing library : LAME3.99.5

Скриншоты

Купава (Оксана Черкасова) [2014, Россия, мультфильм, WEBRip] [cybertorrent.pro-2205].torrent 
Торрент: Зарегистрирован [ 2019-04-21 16:40 ]

info_hash: F20C2F039200BB1757EFA5D30DE0A56B942FC11C

Скачать .torrent

Скачать

14 KB

Статус: проверено
Скачано: 5 раза
Размер: 171 MB
 
Показать сообщения:    
Ответить на тему

Текущее время: 18-Апр 10:18

Часовой пояс: UTC ± 0



Вы не можете начинать темы
Вы не можете отвечать на сообщения
Вы не можете редактировать свои сообщения
Вы не можете удалять свои сообщения
Вы не можете голосовать в опросах
Вы не можете прикреплять файлы к сообщениям
Вы можете скачивать файлы

[  Время выполнения: 0.0512 сек  |  MySQL: 0.0136 сек (27%) · 8 запр.  |  сжатие Gzip: выкл  |  Память: 429.79 KB / 2.36 MB / 1.5 MB  ] |  |  |