Неудержимые / Боезапас / The Expendables (Сирио Х. Сантьяго / Cirio H. Santiago) [1988, США, Филиппины, Боевик, LDRip] AVO (Сергей Кузнецов) + Original Eng

Ответить на тему
Статистика раздачи
Размер:  1.39 GB   |    Зарегистрирован:  5 года 1 месяц   |    Скачано:  2 раза
Список скачавших: Нет

Полного источника не было: 5 месяца 13 дня -> Гость

     
 
Автор Сообщение

serzh ®

Пол: Не указан

Зарегистрированный: 5 года 3 месяца

Сообщений: 441

Создавать темы 23-Апр-2019 15:33 | #1 · Автор

[Цитировать]

Неудержимые / Боезапас / The Expendables
Страна: США, Филиппины
Жанр: Боевик
Год выпуска: 1988
Продолжительность: 01:29:05
Перевод: Авторский (одноголосый закадровый) Сергей Кузнецов
Субтитры: нет
Оригинальная аудиодорожка: английский
Режиссер: Сирио Х. Сантьяго / Cirio H. Santiago
В ролях: Anthony Finetti, Питер Нельсон, Лорен Хейнс, Кевин Даффис, Уильям Стайс, Вик Диас, Леа
Наварро, Дэвид Лайт, Джефф Гриффит, Эрик Хан
Описание: Captain Baronski, assigned a squad of misfit soldiers, trains them into a fighting powerhouse
"The Expendables." Breaking every rule, they must risk their lives crossing into Cambodia to save the
American hostages.
Доп. информация: Дорожка с С. Кузнецовым синхронизирована и наложена ale_x2008 при помощи Adobe Audition, Sony Vegas и VirtualDubMod.
За оцифрованную с VHS дорожку благодарим - Glowamy

Релиз
Сэмпл: https://yadi.sk/i/PCZUcv2mvb_RFw
Качество видео: LDRip
Формат видео: AVI
Видео: 640x480 (1.33:1), 23.976 fps, XviD build 73 ~1839 kbps avg, 0.25 bit/pixel
Аудио: AC3 Dolby Digital, 48000Hz, 2/0 (L,R) ch (mono), 192 kbps avg
Аудио 2: AC3 Dolby Digital, 48000Hz, 2/0 (L,R) ch, 192 kbps avg

MediaInfo

Неудержимые - The Expendables (by ale_x2008).avi
Format : AVI
Format/Info : Audio Video Interleave
File size : 1.39 GiB
Duration : 1 h 29 min
Overall bit rate : 2 238 kb/s
Movie name : Неудержимые - The Expendables (by ale_x2008)
Director : by ale_X2008
Writing application : VirtualDubMod 1.5.10.2 (build 2540/release)
Copyright : Edich2
Comment : RuTracker.org
Video
ID : 0
Format : MPEG-4 Visual
Format profile : Advanced Simple@L5
Format settings : BVOP1 / Custom Matrix
Format settings, BVOP : 1
Format settings, QPel : No
Format settings, GMC : No warppoints
Format settings, Matrix : Custom
Codec ID : XVID
Codec ID/Hint : XviD
Duration : 1 h 29 min
Bit rate : 1 840 kb/s
Width : 640 pixels
Height : 480 pixels
Display aspect ratio : 4:3
Frame rate : 23.976 (24000/1001) FPS
Color space : YUV
Chroma subsampling : 4:2:0
Bit depth : 8 bits
Scan type : Progressive
Compression mode : Lossy
Bits/(Pixel*Frame) : 0.250
Stream size : 1.14 GiB (82%)
Writing library : XviD 73
Audio #1
ID : 1
Format : AC-3
Format/Info : Audio Coding 3
Codec ID : 2000
Duration : 1 h 29 min
Bit rate mode : Constant
Bit rate : 192 kb/s
Channel(s) : 2 channels
Channel positions : Front: L R
Sampling rate : 48.0 kHz
Frame rate : 31.250 FPS (1536 SPF)
Bit depth : 16 bits
Compression mode : Lossy
Stream size : 122 MiB (9%)
Alignment : Split accross interleaves
Interleave, duration : 42 ms (1.00 video frame)
Interleave, preload duratio : 500 ms
Service kind : Complete Main
Audio #2
ID : 2
Format : AC-3
Format/Info : Audio Coding 3
Codec ID : 2000
Duration : 1 h 29 min
Bit rate mode : Constant
Bit rate : 192 kb/s
Channel(s) : 2 channels
Channel positions : Front: L R
Sampling rate : 48.0 kHz
Frame rate : 31.250 FPS (1536 SPF)
Bit depth : 16 bits
Compression mode : Lossy
Stream size : 122 MiB (9%)
Alignment : Split accross interleaves
Interleave, duration : 42 ms (1.00 video frame)
Interleave, preload duratio : 500 ms
Service kind : Complete Main

Скриншоты


Неудержимые / Боезапас / The Expendables (Сирио Х. Сантьяго / Cirio H. Santiago) [1988, США, Филиппины, Боевик, LDRip] AVO (Сергей Кузнецов) + Original Eng [cybertorrent.pro-2253].torrent 
Торрент: Зарегистрирован [ 2019-04-23 15:33 ]

info_hash: 1DD66F9E2F4BB69288332EDE2A65FC5AABB2C5CC

Скачать .torrent

Скачать

14 KB

Статус: проверено
Скачано: 2 раза
Размер: 1.39 GB
[Профиль] [ЛС]
Показать сообщения:    
Ответить на тему

Текущее время: 21-Июн 16:56

Часовой пояс: UTC ± 0



Вы не можете начинать темы
Вы не можете отвечать на сообщения
Вы не можете редактировать свои сообщения
Вы не можете удалять свои сообщения
Вы не можете голосовать в опросах
Вы не можете прикреплять файлы к сообщениям
Вы можете скачивать файлы

[  Время выполнения: 0.0611 сек  |  MySQL: 0.0230 сек (38%) · 9 запр.  |  сжатие Gzip: выкл  |  Память: 429.79 KB / 2.35 MB / 1.5 MB  ] |  |  |