Затерянные во льдах / Arctic (Джо Пенна / Joe Penna) [2018, Исландия, драма, приключения, HDRip] Dub (iTunes)

Ответить на тему
Статистика раздачи
Размер:  744 MB   |    Зарегистрирован:  4 года 11 месяца   |    Скачано:  3 раза
Список скачавших: Нет

Полного источника не было: Никогда

     
 
Автор Сообщение

солнышко ®

Пол: Женский

Зарегистрированный: 5 года 1 месяц

Сообщений: 712

Создавать темы 26-Апр-2019 16:37 | #1 · Автор

[Цитировать]

Затерянные во льдах / Arctic
Страна: Исландия
Жанр: драма, приключения
Год выпуска: 2018
Продолжительность: 01:38:05-Перевод: Профессиональный (дублированный) | iTunes
Субтитры: нет
Оригинальная аудиодорожка: нет-Режиссер: Джо Пенна / Joe Penna-В ролях: Мадс Миккельсен, Мария Тельма Смарадоттир-Описание: В арктической пустыне — ледяной, снежной, оторванной от мира, где температура воздуха может опускаться до 70⁰С, Хаксли, пилот потерпевшего крушение самолёта, отчаянно борется за жизнь. Он научился справляться с холодом, охотиться, чтобы прокормить себя. В этих условиях ему предстоит заботиться о спасательнице, которая попала в шторм и разбилась. Девушка серьёзно ранена, времени ждать помощи нет: Хаксли вместе с умирающей отправляется в путь.- -Качество видео: HDRip
Формат видео: AVI
Видео: 688x288 (2.39:1), 23.976 fps, XviD build 73 ~922 kbps avg, 0.19 bit/pixel
Аудио: 48 kHz, MPEG Layer 3, 2 ch, ~128.00 kbps avg-Сэмпл-

MediaInfo

Код:Формат : AVI
Формат/Информация : Audio Video Interleave
Размер файла : 744 Мбайт
Продолжительность : 1 ч. 38 м.
Общий поток : 1060 Кбит/сек
Программа кодирования : VirtualDubMod 1.5.10.3 | www.virtualdub-fr.org || (build 2550/release)
Библиотека кодирования : VirtualDubMod build 2550/release
Видео
Идентификатор : 0
Формат : MPEG-4 Visual
Профиль формата : Advanced Simple@L5
Настройки формата : BVOP1 / Custom Matrix
Параметр BVOP формата : 1
Параметр QPel формата : Нет
Параметр GMC формата : Без точки перехода
Параметр матрицы формата : Выборочная
Идентификатор кодека : XVID
Идентификатор кодека/Подсказка : XviD
Продолжительность : 1 ч. 38 м.
Битрейт : 923 Кбит/сек
Ширина : 688 пикселей
Высота : 288 пикселей
Соотношение сторон : 2,40:1
Частота кадров : 23,976 (24000/1001) кадра/сек
Цветовое пространство : YUV
Субдискретизация насыщенности : 4:2:0
Битовая глубина : 8 бит
Тип развёртки : Прогрессивная
Метод сжатия : С потерями
Бит/(Пиксели*Кадры) : 0.194
Размер потока : 647 Мбайт (87%)
Библиотека кодирования : XviD 73
Аудио
Идентификатор : 1
Формат : MPEG Audio
Версия формата : Version 1
Профиль формата : Layer 3
Идентификатор кодека : 55
Идентификатор кодека/Подсказка : MP3
Продолжительность : 1 ч. 38 м.
Вид битрейта : Постоянный
Битрейт : 128 Кбит/сек
Каналы : 2 канала
Частота : 48,0 КГц
Частота кадров : 41,667 кадра/сек (1152 SPF)
Метод сжатия : С потерями
Размер потока : 89,8 Мбайт (12%)
Выравнивание : Соединение по промежуткам
Продолжительность промежутка : 42 мс. (1,00 видеокадр)
Время предзагрузки промежутка : 504 мс.
Библиотека кодирования : LAME3.99r
Настройки программы : -m s -V 4 -q 2 -lowpass 17 -b 128

Скриншоты


Затерянные во льдах / Arctic (Джо Пенна / Joe Penna) [2018, Исландия, драма, приключения, HDRip] Dub (iTunes) [cybertorrent.pro-2295].torrent 
Торрент: Зарегистрирован [ 2019-04-26 16:37 ]

info_hash: CC6A2732F8021FA023559D120044174F0D234FEC

Скачать .torrent

Скачать

15 KB

Статус: проверено
Скачано: 3 раза
Размер: 744 MB
[Профиль] [ЛС]
Показать сообщения:    
Ответить на тему

Текущее время: 18-Апр 07:15

Часовой пояс: UTC ± 0



Вы не можете начинать темы
Вы не можете отвечать на сообщения
Вы не можете редактировать свои сообщения
Вы не можете удалять свои сообщения
Вы не можете голосовать в опросах
Вы не можете прикреплять файлы к сообщениям
Вы можете скачивать файлы

[  Время выполнения: 0.0880 сек  |  MySQL: 0.0229 сек (26%) · 8 запр.  |  сжатие Gzip: выкл  |  Память: 429.79 KB / 2.37 MB / 1.51 MB  ] |  |  |