30 безумных желаний / Then Came You (Питер Хатчингс / Peter Hutchings) [2018, США, драма, комедия, приключения, HDRip] Dub (iTunes)

Ответить на тему
Статистика раздачи
   
 
Автор Сообщение

солнышко ®

Пол: Женский

Зарегистрированный: 5 года 3 месяца

Сообщений: 712

Создавать темы 27-Апр-2019 17:09 | #1 · Автор

[Цитировать]

30 безумных желаний / Then Came You
Информация о фильме
Год выпуска: 2018
Страна: США
Студия: BCDF Pictures
Жанр: Драма, комедия, приключения
Продолжительность: 01:36:51
Перевод: Профессиональный (дублированный) | iTunes
Субтитры: нет
Оригинальная аудиодорожка: нет
Режиссер: Питер Хатчингс / Peter Hutchings
В ролях: Эйса Баттерфилд, Нина Добрев, Мэйси Уильямс, Пейтон Лист, Кен Жонг, Тайлер Хэклин, Соня Уолгер, Дэвид Кёкнер, Титус Берджесс, Бриана Венскус
О фильме:
Келвин - мнительный ипохондрик, сортирующий багаж в аэропорту, попутно придумывая себе несуществующие болезни. Скай - девушка-праздник, которая видит в жизни только хорошее. Вернее, в том коротком отрезке жизни, что ей остался. За это время она хочет успеть осуществить свои самые безумные желания. Вместе они заново откроют этот мир и самих себя с весьма неожиданных сторон.

Релиз:
Файл
Формат: AVI
Качество: HDRip
Видео: 720x304 (2.37:1), 23.976 fps, XviD build 73 ~1765 kbps avg, 0.34 bit/pixel
Аудио: 48 kHz, AC3 Dolby Digital, 3/2 (L,C,R,l,r) + LFE ch, ~384 kbps
Сэмпл

MediaInfo

Код:General
Complete name : D:\Торрент\THEN_CAME_YOU_2018_HDRip.1.46Gb.MegaPeer.avi
Format : AVI
Format/Info : Audio Video Interleave
File size : 1.46 GiB
Duration : 1 h 36 min
Overall bit rate : 2 159 kb/s
Writing application : VirtualDubMod 1.5.10.3 | www.virtualdub-fr.org || (build 2550/release)
Writing library : VirtualDubMod build 2550/release
Video
ID : 0
Format : MPEG-4 Visual
Format profile : Advanced Simple@L5
Format settings : BVOP1 / Custom Matrix
Format settings, BVOP : 1
Format settings, QPel : No
Format settings, GMC : No warppoints
Format settings, Matrix : Custom
Codec ID : XVID
Codec ID/Hint : XviD
Duration : 1 h 36 min
Bit rate : 1 766 kb/s
Width : 720 pixels
Height : 304 pixels
Display aspect ratio : 2.35:1
Frame rate : 23.976 (24000/1001) FPS
Color space : YUV
Chroma subsampling : 4:2:0
Bit depth : 8 bits
Scan type : Progressive
Compression mode : Lossy
Bits/(Pixel*Frame) : 0.336
Stream size : 1.19 GiB (82%)
Writing library : XviD 73
Audio
ID : 1
Format : AC-3
Format/Info : Audio Coding 3
Codec ID : 2000
Duration : 1 h 36 min
Bit rate mode : Constant
Bit rate : 384 kb/s
Channel(s) : 6 channels
Channel positions : Front: L C R, Side: L R, LFE
Sampling rate : 48.0 kHz
Frame rate : 31.250 FPS (1536 SPF)
Bit depth : 16 bits
Compression mode : Lossy
Stream size : 266 MiB (18%)
Alignment : Split accross interleaves
Interleave, duration : 42 ms (1.00 video frame)
Interleave, preload duratio : 500 ms
Service kind : Complete Main

Скриншоты

[Профиль] [ЛС]
Показать сообщения:    
Ответить на тему

Текущее время: 16-Июн 12:51

Часовой пояс: UTC ± 0



Вы не можете начинать темы
Вы не можете отвечать на сообщения
Вы не можете редактировать свои сообщения
Вы не можете удалять свои сообщения
Вы не можете голосовать в опросах
Вы не можете прикреплять файлы к сообщениям
Вы не можете скачивать файлы

[  Время выполнения: 0.0877 сек  |  MySQL: 0.0541 сек (62%) · 6 запр.  |  сжатие Gzip: выкл  |  Память: 429.79 KB / 2.03 MB / 1.4 MB  ] |  |  |