Закат цивилизации / Extinction (Бен Янг / Ben Young) [2018, США, фантастика, триллер, WEB-DLRip] MVO (HDRezka Studio)

Ответить на тему
Статистика раздачи
Размер:  1.46 GB   |    Зарегистрирован:  4 года 11 месяца   |    Скачано:  0 раза
Список скачавших: Нет

Полного источника не было: Никогда

     
 
Автор Сообщение

солнышко ®

Пол: Женский

Зарегистрированный: 5 года 1 месяц

Сообщений: 712

Создавать темы 27-Апр-2019 17:09 | #1 · Автор

[Цитировать]

Закат цивилизации / Extinction
Страна: США
Жанр: фантастика, триллер
Год выпуска: 2018
Продолжительность: 01:34:51
Перевод: Любительский (многоголосый закадровый) - HDRezka Studio
Субтитры: нет
Режиссер: Бен Янг / Ben Young
В ролях: Майкл Пенья, Майк Колтер, Лиззи Каплан, Израэль Бруссар, Эмма Бут, Том Райли, Лилли Аспелл, Лекс Шрэпнел, Эрика Тремблэй, Амелия Крауч
Описание: Питер видит один и тот же кошмарный сон, в котором человечество подвергается атаке неизвестных пришельцев с превосходящими силами и технологиями. Когда эти видения начинают мешать повседневной жизни, Питер поддается на уговоры жены и начальника и посещает клинику сна. А там выясняется, что подобные видения приходят не к нему одному. Однажды настаёт тот ужасный день, когда сон сбывается, и на Землю прибывают инопланетяне, сеющие смерть, разрушение и ужас.
Сэмпл
Качество видео: WEB-DLRip
Формат видео: AVI
Видео: 720x304 (2.37:1), 23.976 fps, XviD build 73 ~1738 kbps avg, 0.33 bit/pixel
Аудио: 48 kHz, AC3 Dolby Digital, 3/2 (L,C,R,l,r) + LFE ch, ~448 kbps

MediaInfo

General
Complete name : H:\Extinction.2018.web-dlrip_[1.46]_[teko].avi
Format : AVI
Format/Info : Audio Video Interleave
File size : 1.46 GiB
Duration : 1h 34mn
Overall bit rate : 2 196 Kbps
Writing application : VirtualDubMod 1.5.10.3 | www.virtualdub-fr.org || (build 2550/release)
Writing library : VirtualDubMod build 2550/release
Video
ID : 0
Format : MPEG-4 Visual
Format profile : Advanced Simple@L5
Format settings, BVOP : 2
Format settings, QPel : No
Format settings, GMC : No warppoints
Format settings, Matrix : Custom
Codec ID : XVID
Codec ID/Hint : XviD
Duration : 1h 34mn
Bit rate : 1 739 Kbps
Width : 720 pixels
Height : 304 pixels
Display aspect ratio : 2.35:1
Frame rate : 23.976 (23976/1000) fps
Color space : YUV
Chroma subsampling : 4:2:0
Bit depth : 8 bits
Scan type : Progressive
Compression mode : Lossy
Bits/(Pixel*Frame) : 0.331
Stream size : 1.15 GiB (79%)
Writing library : XviD 73
Audio
ID : 1
Format : AC-3
Format/Info : Audio Coding 3
Mode extension : CM (complete main)
Format settings, Endianness : Big
Codec ID : 2000
Duration : 1h 34mn
Bit rate mode : Constant
Bit rate : 448 Kbps
Channel(s) : 6 channels
Channel positions : Front: L C R, Side: L R, LFE
Sampling rate : 48.0 KHz
Frame rate : 31.250 fps (1536 spf)
Compression mode : Lossy
Stream size : 304 MiB (20%)
Alignment : Split accross interleaves
Interleave, duration : 42 ms (1.00 video frame)
Interleave, preload duratio : 500 ms

Скриншоты

Релиз группы:
--
Закат цивилизации / Extinction (Бен Янг / Ben Young) [2018, США, фантастика, триллер, WEB-DLRip] MVO (HDRezka Studio) [cybertorrent.pro-2321].torrent 
Торрент: Зарегистрирован [ 2019-04-27 17:09 ]

info_hash: EBDFD7441B00EA5988C0A26DDFD96655BFD08F49

Скачать .torrent

Скачать

15 KB

Статус: проверено
Скачано: 0 раза
Размер: 1.46 GB
[Профиль] [ЛС]
Показать сообщения:    
Ответить на тему

Текущее время: 23-Апр 03:52

Часовой пояс: UTC ± 0



Вы не можете начинать темы
Вы не можете отвечать на сообщения
Вы не можете редактировать свои сообщения
Вы не можете удалять свои сообщения
Вы не можете голосовать в опросах
Вы не можете прикреплять файлы к сообщениям
Вы можете скачивать файлы

[  Время выполнения: 0.0454 сек  |  MySQL: 0.0094 сек (21%) · 8 запр.  |  сжатие Gzip: выкл  |  Память: 429.79 KB / 2.37 MB / 1.51 MB  ] |  |  |