Как это заканчивается / How It Ends (Дэвид М. Розенталь / David M. Rosenthal) [2018, Канада, США, фантастика, боевик, триллер, WEB-DLRip] MVO (Jaskier)

Ответить на тему
Статистика раздачи
Размер:  1.46 GB   |    Зарегистрирован:  4 года 11 месяца   |    Скачано:  0 раза
Список скачавших: Нет

Полного источника не было: Никогда

     
 
Автор Сообщение

солнышко ®

Пол: Женский

Зарегистрированный: 5 года 1 месяц

Сообщений: 712

Создавать темы 27-Апр-2019 17:09 | #1 · Автор

[Цитировать]

Как это заканчивается / How It Ends
Страна: Канада, США
Жанр: фантастика, боевик, триллер
Год выпуска: 2018
Продолжительность: 01:52:38
Перевод: Профессиональный (многоголосый закадровый) - Jaskier
Субтитры: нет
Режиссер: Дэвид М. Розенталь / David M. Rosenthal
В ролях: Тео Джеймс, Катерина Грэхэм, Керри Бише, Форест Уитакер, Грэйс Дав, Лэни МакОли, Марк О'Брайэн, Нэнси Сорел, АрДжей Фезерстонхо, Джош Круддас
Описание: Уилл и Саманта — счастливая пара, и скоро у них намечается пополнение в семье. Но Уилл не может поладить со свекром Томом, который злится из-за переезда дочери в другой город. Выяснение отношений приходится отложить, когда за Западном побережье происходит некая масштабная катастрофа. Электричество отключается, аэропорты закрыты, и Саманте явно грозит опасность, тогда Уилл с Томом отправляются на её спасение.
Сэмпл
Качество видео: WEB-DLRip
Формат видео: AVI
Видео: 720x304 (2.37:1), 23.976 fps, XviD build 73 ~1395 kbps avg, 0.27 bit/pixel
Аудио: 48 kHz, AC3 Dolby Digital, 3/2 (L,C,R,l,r) + LFE ch, ~448 kbps

MediaInfo

General
Complete name : H:\How.It.Ends.2018.web-dlrip_[1.46]_[teko].avi
Format : AVI
Format/Info : Audio Video Interleave
File size : 1.46 GiB
Duration : 1h 52mn
Overall bit rate : 1 853 Kbps
Writing application : VirtualDubMod 1.5.10.3 | www.virtualdub-fr.org || (build 2550/release)
Writing library : VirtualDubMod build 2550/release
Video
ID : 0
Format : MPEG-4 Visual
Format profile : Advanced Simple@L5
Format settings, BVOP : 2
Format settings, QPel : No
Format settings, GMC : No warppoints
Format settings, Matrix : Custom
Codec ID : XVID
Codec ID/Hint : XviD
Duration : 1h 52mn
Bit rate : 1 396 Kbps
Width : 720 pixels
Height : 304 pixels
Display aspect ratio : 2.35:1
Frame rate : 23.976 (23976/1000) fps
Color space : YUV
Chroma subsampling : 4:2:0
Bit depth : 8 bits
Scan type : Progressive
Compression mode : Lossy
Bits/(Pixel*Frame) : 0.266
Stream size : 1.10 GiB (75%)
Writing library : XviD 73
Audio
ID : 1
Format : AC-3
Format/Info : Audio Coding 3
Mode extension : CM (complete main)
Format settings, Endianness : Big
Codec ID : 2000
Duration : 1h 52mn
Bit rate mode : Constant
Bit rate : 448 Kbps
Channel(s) : 6 channels
Channel positions : Front: L C R, Side: L R, LFE
Sampling rate : 48.0 KHz
Frame rate : 31.250 fps (1536 spf)
Compression mode : Lossy
Stream size : 361 MiB (24%)
Alignment : Split accross interleaves
Interleave, duration : 42 ms (1.00 video frame)
Interleave, preload duratio : 500 ms

Скриншоты

Релиз группы:
--
Как это заканчивается / How It Ends (Дэвид М. Розенталь / David M. Rosenthal) [2018, Канада, США, фантастика, боевик, триллер, WEB-DLRip] MVO (Jaskier) [cybertorrent.pro-2323].torrent 
Торрент: Зарегистрирован [ 2019-04-27 17:09 ]

info_hash: BABDB0489A04B10D57B36E47624488A003988198

Скачать .torrent

Скачать

15 KB

Статус: проверено
Скачано: 0 раза
Размер: 1.46 GB
[Профиль] [ЛС]
Показать сообщения:    
Ответить на тему

Текущее время: 23-Апр 04:56

Часовой пояс: UTC ± 0



Вы не можете начинать темы
Вы не можете отвечать на сообщения
Вы не можете редактировать свои сообщения
Вы не можете удалять свои сообщения
Вы не можете голосовать в опросах
Вы не можете прикреплять файлы к сообщениям
Вы можете скачивать файлы

[  Время выполнения: 0.0423 сек  |  MySQL: 0.0112 сек (27%) · 8 запр.  |  сжатие Gzip: выкл  |  Память: 429.79 KB / 2.37 MB / 1.52 MB  ] |  |  |