Крипто / Crypto (Джон Сталберг / John Stalberg) [2019, США, триллер, драма, криминал, WEB-DLRip] MVO (HDRezka Studio)

Ответить на тему
Статистика раздачи
Размер:  1.46 GB   |    Зарегистрирован:  4 года 11 месяца   |    Скачано:  1 раз
Список скачавших: Нет

Полного источника не было: Никогда

     
 
Автор Сообщение

Гость ®

Создавать темы 27-Апр-2019 17:08 | #1

[Цитировать]

Крипто / Crypto
Страна: США
Жанр: триллер, драма, криминал
Год выпуска: 2019
Продолжительность: 01:45:54-Перевод: Любительский (многоголосый закадровый) | HDRezka Studio
Субтитры: нет
Оригинальная аудиодорожка: нет-Режиссер: Джон Сталберг / John Stalberg-В ролях: Курт Расселл, Люк Хемсворт, Алексис Бледел, Винсент Картайзер, Джилл Хеннесси, Бо Напп, Малая Ривера Дрю, Марели Миниутти, Марша Дитлайн, Джереми Харрис-Описание: В центре истории находится Мартин — сотрудник банка, работающий в отделе по борьбе с отмыванием денег. Несмотря на то, что мужчина прекрасно справляется со своими обязанностями, босс решает отправить его в длительную командировку в родной город. Мартин не в восторге от провинциальной жизни, но приступает к работе и неожиданно сталкивается с подозрительными денежными потоками, которые проходят через местную галерею, продающую картины на миллионы долларов в криптовалюте.- -Качество видео: WEB-DLRip
Формат видео: AVI
Видео: 720x272 (2.65:1), 23.976 fps, XviD build 73 ~1767 kbps avg, 0.38 bit/pixel
Аудио: 48 kHz, AC3 Dolby Digital, 2/0 (L,R) ch, ~192 kbps-Сэмпл-

MediaInfo

Код:Формат : AVI
Формат/Информация : Audio Video Interleave
Размер файла : 1,46 Гбайт
Продолжительность : 1 ч. 45 м.
Общий поток : 1968 Кбит/сек
Программа кодирования : VirtualDubMod 1.5.10.3 | www.virtualdub-fr.org || (build 2550/release)
Библиотека кодирования : VirtualDubMod build 2550/release
Видео
Идентификатор : 0
Формат : MPEG-4 Visual
Профиль формата : Advanced Simple@L5
Настройки формата : BVOP1 / Custom Matrix
Параметр BVOP формата : 1
Параметр QPel формата : Нет
Параметр GMC формата : Без точки перехода
Параметр матрицы формата : Выборочная
Идентификатор кодека : XVID
Идентификатор кодека/Подсказка : XviD
Продолжительность : 1 ч. 45 м.
Битрейт : 1767 Кбит/сек
Ширина : 720 пикселей
Высота : 272 пикселя
Соотношение сторон : 2,647
Частота кадров : 23,976 (24000/1001) кадра/сек
Цветовое пространство : YUV
Субдискретизация насыщенности : 4:2:0
Битовая глубина : 8 бит
Тип развёртки : Прогрессивная
Метод сжатия : С потерями
Бит/(Пиксели*Кадры) : 0.376
Размер потока : 1,31 Гбайт (90%)
Библиотека кодирования : XviD 73
Аудио
Идентификатор : 1
Формат : AC-3
Формат/Информация : Audio Coding 3
Коммерческое название : Dolby Digital
Идентификатор кодека : 2000
Продолжительность : 1 ч. 45 м.
Вид битрейта : Постоянный
Битрейт : 192 Кбит/сек
Каналы : 2 канала
ChannelLayout : L R
Частота : 48,0 КГц
Частота кадров : 31,250 кадров/сек (1536 SPF)
Битовая глубина : 16 бит
Метод сжатия : С потерями
Размер потока : 145 Мбайт (10%)
Выравнивание : Разделение по промежуткам
Продолжительность промежутка : 42 мс. (1,00 видеокадр)
Время предзагрузки промежутка : 500 мс.
ServiceKind/String : Complete Main

Скриншоты


Крипто / Crypto (Джон Сталберг / John Stalberg) [2019, США, триллер, драма, криминал, WEB-DLRip] MVO (HDRezka Studio) [cybertorrent.pro-2330].torrent 
Торрент: Зарегистрирован [ 2019-04-27 17:09 ]

info_hash: EC5FA98A30234C1B35639CA74A9B5B7C6FA60EE4

Скачать .torrent

Скачать

15 KB

Статус: проверено
Скачано: 1 раз
Размер: 1.46 GB
 
Показать сообщения:    
Ответить на тему

Текущее время: 23-Апр 04:09

Часовой пояс: UTC ± 0



Вы не можете начинать темы
Вы не можете отвечать на сообщения
Вы не можете редактировать свои сообщения
Вы не можете удалять свои сообщения
Вы не можете голосовать в опросах
Вы не можете прикреплять файлы к сообщениям
Вы можете скачивать файлы

[  Время выполнения: 0.0730 сек  |  MySQL: 0.0182 сек (25%) · 8 запр.  |  сжатие Gzip: выкл  |  Память: 429.79 KB / 2.36 MB / 1.51 MB  ] |  |  |