Интервью с Богом / An Interview with God (Перри Лэнг / Perry Lang) [2018, США, драма, детектив, BDRip] Dub (iTunes)

Ответить на тему
Статистика раздачи
   
 
Автор Сообщение

солнышко ®

Пол: Женский

Зарегистрированный: 5 года 3 месяца

Сообщений: 712

Создавать темы 28-Апр-2019 15:36 | #1 · Автор

[Цитировать]

Интервью с Богом / An Interview with God
Страна: США
Жанр: драма, детектив
Год выпуска: 2018
Продолжительность: 01:36:46-Перевод: Профессиональный (дублированный) | iTunes
Субтитры: нет
Оригинальная аудиодорожка: нет-Режиссер: Перри Лэнг / Perry Lang-В ролях: Брентон Туэйтс, Дэвид Стрэтэйрн, Яэль Гробглас, Хилл Харпер, Чарлби Дин Крик, Бобби Ди Чикко, Миган Кимберли Смит-Описание: Сюжет разворачивается вокруг перспективного журналиста Пола Ашера, который вернулся домой из Афганистана, где он работал военным корреспондентом. Возвращение главного героя домой приводит к проблемам личного характера, среди которых неудачный брак, отсутствие веры и последствия работы в зоне боевых действий. Стараясь справиться со своими неурядицами, Пол не забывает присматривать за другом, который вернулся из Афганистана вместе с ним и нуждается в помощи. Рутинная жизнь журналиста кардинально меняется, когда у него появляется шанс взять интервью у человека, называющего себя Богом.- -Качество видео: BDRip | An.Interview.with.God.2018.BDREMUX.1080p.seleZen
Формат видео: AVI
Видео: 720x304 (2.37:1), 23.976 fps, XviD build 73 ~1761 kbps avg, 0.34 bit/pixel
Аудио: 48 kHz, AC3 Dolby Digital, 3/2 (L,C,R,l,r) + LFE ch, ~384 kbps-Сэмпл-

MediaInfo

Код:Формат : AVI
Формат/Информация : Audio Video Interleave
Размер файла : 1,46 Гбайт
Продолжительность : 1 ч. 36 м.
Общий поток : 2155 Кбит/сек
Название фильма : Интервью с Богом_2018_BDRip
Программа кодирования : VirtualDubMod 1.5.10.3 | www.virtualdub-fr.org || (build 2550/release) VirtualDubMod build 2550/release
Авторское право : порошков
Видео
Идентификатор : 0
Формат : MPEG-4 Visual
Профиль формата : Advanced Simple@L5
Настройки формата : BVOP1 / Custom Matrix
Параметр BVOP формата : 1
Параметр QPel формата : Нет
Параметр GMC формата : Без точки перехода
Параметр матрицы формата : Выборочная
Идентификатор кодека : XVID
Идентификатор кодека/Подсказка : XviD
Продолжительность : 1 ч. 36 м.
Битрейт : 1762 Кбит/сек
Ширина : 720 пикселей
Высота : 304 пикселя
Соотношение сторон : 2,35:1
Частота кадров : 23,976 (24000/1001) кадра/сек
Цветовое пространство : YUV
Субдискретизация насыщенности : 4:2:0
Битовая глубина : 8 бит
Тип развёртки : Прогрессивная
Метод сжатия : С потерями
Бит/(Пиксели*Кадры) : 0.336
Размер потока : 1,19 Гбайт (82%)
Библиотека кодирования : XviD 73
Аудио
Идентификатор : 1
Формат : AC-3
Формат/Информация : Audio Coding 3
Коммерческое название : Dolby Digital
Идентификатор кодека : 2000
Продолжительность : 1 ч. 36 м.
Вид битрейта : Постоянный
Битрейт : 384 Кбит/сек
Каналы : 6 каналов
ChannelLayout : L R C LFE Ls Rs
Частота : 48,0 КГц
Частота кадров : 31,250 кадров/сек (1536 SPF)
Битовая глубина : 16 бит
Метод сжатия : С потерями
Размер потока : 266 Мбайт (18%)
Выравнивание : Разделение по промежуткам
Продолжительность промежутка : 42 мс. (1,00 видеокадр)
Время предзагрузки промежутка : 500 мс.
Язык : Русский
ServiceKind/String : Complete Main

Скриншоты


[Профиль] [ЛС]
Показать сообщения:    
Ответить на тему

Текущее время: 21-Июн 16:20

Часовой пояс: UTC ± 0



Вы не можете начинать темы
Вы не можете отвечать на сообщения
Вы не можете редактировать свои сообщения
Вы не можете удалять свои сообщения
Вы не можете голосовать в опросах
Вы не можете прикреплять файлы к сообщениям
Вы не можете скачивать файлы

[  Время выполнения: 0.0383 сек  |  MySQL: 0.0047 сек (12%) · 4 запр.  |  сжатие Gzip: выкл  |  Память: 429.79 KB / 1.99 MB / 1.4 MB  ] |  |  |