Под прицелом / Взвод / Point Man (Фил Блаттенбергер / Phil Blattenberger) [2018, США, боевик, драма, WEB-DLRip] MVO (HDRezka Studio)

Ответить на тему
Статистика раздачи
Размер:  1.45 GB   |    Зарегистрирован:  4 года 11 месяца   |    Скачано:  1 раз
Список скачавших: Нет

Полного источника не было: Никогда

     
 
Автор Сообщение

солнышко ®

Пол: Женский

Зарегистрированный: 5 года 1 месяц

Сообщений: 712

Создавать темы 28-Апр-2019 15:36 | #1 · Автор

[Цитировать]

Под прицелом / Взвод / Point Man
Страна: США
Жанр: боевик, драма
Год выпуска: 2018
Продолжительность: 01:26:36-Перевод: Любительский (многоголосый закадровый) | HDRezka Studio
Субтитры: нет
Оригинальная аудиодорожка: нет-Режиссер:
Фил Блаттенбергер / Phil Blattenberger-В ролях:
Джимми Льюис, Уилльям Шеннон Уильямс, Акорье Уайт, Джо Наулэнд, Джошуа Дела Крус, Чейз Гутцмор, Марианна дель Гальего, Фил Блаттенбергер, Мэттью Эвальд, Джейсон Дамико-Описание:
Действие происходит во Вьетнаме в апреле 1968 года - через три месяца после переломного Тетского наступления и спустя месяц после убийства Мартина Лютера Кинга-младшего. Это история одной боевой роты армии США, столкнувшейся с расовыми предрассудками, нравственными ценностями и стрессовыми ситуациями в бою на войне, в которой никто не хочет принимать участие.-Качество видео: WEB-DLRip
Формат видео: AVI
Видео: 720x304 (2.37:1), 23.976 fps, XviD build 73 ~2203 kbps avg, 0.42 bit/pixel
Аудио: 48 kHz, AC3 Dolby Digital, 2/0 (L,R) ch, ~192 kbps-Сэмпл-

MediaInfo

Код:Формат : AVI
Формат/Информация : Audio Video Interleave
Размер файла : 1,45 Гбайт
Продолжительность : 1 ч. 26 м.
Общий поток : 2405 Кбит/сек
Программа кодирования : VirtualDubMod 1.5.10.3 | www.virtualdub-fr.org || (build 2550/release)
Библиотека кодирования : VirtualDubMod build 2550/release
Видео
Идентификатор : 0
Формат : MPEG-4 Visual
Профиль формата : Advanced Simple@L5
Настройки формата : BVOP1 / Custom Matrix
Параметр BVOP формата : 1
Параметр QPel формата : Нет
Параметр GMC формата : Без точки перехода
Параметр матрицы формата : Выборочная
Идентификатор кодека : XVID
Идентификатор кодека/Подсказка : XviD
Продолжительность : 1 ч. 26 м.
Битрейт : 2203 Кбит/сек
Ширина : 720 пикселей
Высота : 304 пикселя
Соотношение сторон : 2,35:1
Частота кадров : 23,976 (24000/1001) кадра/сек
Цветовое пространство : YUV
Субдискретизация насыщенности : 4:2:0
Битовая глубина : 8 бит
Тип развёртки : Прогрессивная
Метод сжатия : С потерями
Бит/(Пиксели*Кадры) : 0.420
Размер потока : 1,33 Гбайт (92%)
Библиотека кодирования : XviD 73
Аудио
Идентификатор : 1
Формат : AC-3
Формат/Информация : Audio Coding 3
Коммерческое название : Dolby Digital
Идентификатор кодека : 2000
Продолжительность : 1 ч. 26 м.
Вид битрейта : Постоянный
Битрейт : 192 Кбит/сек
Каналы : 2 канала
ChannelLayout : L R
Частота : 48,0 КГц
Частота кадров : 31,250 кадров/сек (1536 SPF)
Битовая глубина : 16 бит
Метод сжатия : С потерями
Размер потока : 119 Мбайт (8%)
Выравнивание : Разделение по промежуткам
Продолжительность промежутка : 42 мс. (1,00 видеокадр)
Время предзагрузки промежутка : 500 мс.
ServiceKind/String : Complete Main

Скриншоты


Под прицелом / Взвод / Point Man (Фил Блаттенбергер / Phil Blattenberger) [2018, США, боевик, драма, WEB-DLRip] MVO (HDRezka Studio) [cybertorrent.pro-2347].torrent 
Торрент: Зарегистрирован [ 2019-04-28 15:36 ]

info_hash: 8022322E0E43B5C92F7D3E0FC290FED9B58D1F84

Скачать .torrent

Скачать

15 KB

Статус: проверено
Скачано: 1 раз
Размер: 1.45 GB
[Профиль] [ЛС]
Показать сообщения:    
Ответить на тему

Текущее время: 23-Апр 04:38

Часовой пояс: UTC ± 0



Вы не можете начинать темы
Вы не можете отвечать на сообщения
Вы не можете редактировать свои сообщения
Вы не можете удалять свои сообщения
Вы не можете голосовать в опросах
Вы не можете прикреплять файлы к сообщениям
Вы можете скачивать файлы

[  Время выполнения: 0.0411 сек  |  MySQL: 0.0102 сек (25%) · 8 запр.  |  сжатие Gzip: выкл  |  Память: 429.79 KB / 2.37 MB / 1.51 MB  ] |  |  |