Болотная икра / Байу Кавиар / Bayou Caviar (Кьюба Гудинг-мл. / Cuba Gooding Jr.) [2018, США, драма, WEB-DLRip]

Ответить на тему
Статистика раздачи
   
 
Автор Сообщение

солнышко ®

Пол: Женский

Зарегистрированный: 5 года 3 месяца

Сообщений: 712

Создавать темы 30-Апр-2019 16:25 | #1 · Автор

[Цитировать]

Болотная икра / Bayou Caviar
Страна: США
Жанр: драма
Год выпуска: 2018
Продолжительность: 01:51:01-Перевод: Любительский (многоголосый закадровый) | HDRezka Studio
Субтитры: нет
Оригинальная аудиодорожка: нет-Режиссер: Кьюба Гудинг-мл. / Cuba Gooding Jr.-В ролях: Кьюба Гудинг-мл., Фамке Янссен, Ричард Дрейфусс, Лия Мари Джонсон, Грегг Белло, Кэтрин МакФи, Кен Лернер, Сэм Такур, Джеймс Моусес Блэк, Алекс Ковалёв-Описание: Некогда успешный боксер Родни Джонс после ухода своего тренера и покровителя устраивается охранником в ночной клуб. Объединившись с фотографом-лесбиянкой Ник, он собирает компромат на богатого застройщика Исаака, известного своими ортодоксальными взглядами.- -Качество видео: WEB-DLRip
Формат видео: AVI
Видео: 720x304 (2.37:1), 23.976 fps, XviD build 73 ~1676 kbps avg, 0.32 bit/pixel
Аудио: 48 kHz, AC3 Dolby Digital, 2/0 (L,R) ch, ~192 kbps-Сэмпл-

MediaInfo

Код:Формат : AVI
Формат/Информация : Audio Video Interleave
Размер файла : 1,46 Гбайт
Продолжительность : 1 ч. 51 м.
Общий поток : 1878 Кбит/сек
Программа кодирования : VirtualDubMod 1.5.10.3 | www.virtualdub-fr.org || (build 2550/release)
Библиотека кодирования : VirtualDubMod build 2550/release
Видео
Идентификатор : 0
Формат : MPEG-4 Visual
Профиль формата : Advanced Simple@L5
Настройки формата : BVOP1 / Custom Matrix
Параметр BVOP формата : 1
Параметр QPel формата : Нет
Параметр GMC формата : Без точки перехода
Параметр матрицы формата : Выборочная
Идентификатор кодека : XVID
Идентификатор кодека/Подсказка : XviD
Продолжительность : 1 ч. 51 м.
Битрейт : 1676 Кбит/сек
Ширина : 720 пикселей
Высота : 304 пикселя
Соотношение сторон : 2,35:1
Частота кадров : 23,976 (24000/1001) кадра/сек
Цветовое пространство : YUV
Субдискретизация насыщенности : 4:2:0
Битовая глубина : 8 бит
Тип развёртки : Прогрессивная
Метод сжатия : С потерями
Бит/(Пиксели*Кадры) : 0.319
Размер потока : 1,30 Гбайт (89%)
Библиотека кодирования : XviD 73
Аудио
Идентификатор : 1
Формат : AC-3
Формат/Информация : Audio Coding 3
Коммерческое название : Dolby Digital
Идентификатор кодека : 2000
Продолжительность : 1 ч. 51 м.
Вид битрейта : Постоянный
Битрейт : 192 Кбит/сек
Каналы : 2 канала
ChannelLayout : L R
Частота : 48,0 КГц
Частота кадров : 31,250 кадров/сек (1536 SPF)
Битовая глубина : 16 бит
Метод сжатия : С потерями
Размер потока : 152 Мбайт (10%)
Выравнивание : Разделение по промежуткам
Продолжительность промежутка : 42 мс. (1,00 видеокадр)
Время предзагрузки промежутка : 500 мс.
ServiceKind/String : Complete Main

Скриншоты


[Профиль] [ЛС]
Показать сообщения:    
Ответить на тему

Текущее время: 21-Июн 17:08

Часовой пояс: UTC ± 0



Вы не можете начинать темы
Вы не можете отвечать на сообщения
Вы не можете редактировать свои сообщения
Вы не можете удалять свои сообщения
Вы не можете голосовать в опросах
Вы не можете прикреплять файлы к сообщениям
Вы не можете скачивать файлы

[  Время выполнения: 0.0413 сек  |  MySQL: 0.0046 сек (11%) · 4 запр.  |  сжатие Gzip: выкл  |  Память: 429.79 KB / 1.99 MB / 1.41 MB  ] |  |  |