Два взгляда на одно и то же (В.Голиков, М.Лубянникова) [1972, СССР, мультфильм для взрослых, WEBRip]

Ответить на тему
Статистика раздачи
Размер:  113 MB   |    Зарегистрирован:  5 года   |    Скачано:  5 раза
Список скачавших: Нет

Полного источника не было: Никогда

     
 
Автор Сообщение

Гость ®

Создавать темы 01-Май-2019 16:45 | #1

[Цитировать]

Два взгляда на одно и то же
Страна: СССР (Белорусская республика)
Жанр: мультфильм для взрослых
Продолжительность: 00:09:40
Год выпуска: 1972
Русские субтитры: нет
Режиссёры: В.Голиков, М.Лубянникова
Описание: Сатирический мультфильм о нарушителях правил дорожного движения.
Доп. информация: Первый мультфильм, снятый на студии "Беларусьфильм".
Информация о всех мультфильмах студии - http://rutracker.org/forum/viewtopic.php?t=5721343
Качество: WEBRip
Формат: AVI
Видео: 1499 kbps, 640х464 (1.379), 25.000 fps, MPEG-4 Visual (XviD)
Аудио: 128 kbps, 48.0 kHz, 2 channels, MPEG Audio (MP3)
Субтитры: отсутствуют

Подробные технические данные

General
Complete name : Два взгляда на одно и то же (1972).avi
Format : AVI
Format/Info : Audio Video Interleave
File size : 113 MiB
Duration : 9mn 40s
Overall bit rate : 1 637 Kbps
Video
ID : 0
Format : MPEG-4 Visual
Format profile : Advanced Simple@L5
Format settings, BVOP : 2
Format settings, QPel : No
Format settings, GMC : No warppoints
Format settings, Matrix : Default (H.263)
Codec ID : XVID
Codec ID/Hint : XviD
Duration : 9mn 40s
Bit rate : 1 499 Kbps
Width : 640 pixels
Height : 464 pixels
Display aspect ratio : 1.379
Frame rate : 25.000 fps
Color space : YUV
Chroma subsampling : 4:2:0
Bit depth : 8 bits
Scan type : Progressive
Compression mode : Lossy
Bits/(Pixel*Frame) : 0.202
Stream size : 104 MiB (92%)
Writing library : XviD 73
Audio
ID : 1
Format : MPEG Audio
Format version : Version 1
Format profile : Layer 3
Codec ID : 55
Codec ID/Hint : MP3
Duration : 9mn 40s
Bit rate mode : Constant
Bit rate : 128 Kbps
Channel(s) : 2 channels
Sampling rate : 48.0 KHz
Compression mode : Lossy
Stream size : 8.85 MiB (8%)
Alignment : Aligned on interleaves
Interleave, duration : 40 ms (1.00 video frame)
Interleave, preload duration : 504 ms
Writing library : LAME3.99r
Encoding settings : -m s -V 4 -q 2 -lowpass 17 -b 128

Скриншоты

Два взгляда на одно и то же (В.Голиков, М.Лубянникова) [1972, СССР, мультфильм для взрослых, WEBRip] [cybertorrent.pro-2403].torrent 
Торрент: Зарегистрирован [ 2019-05-01 16:45 ]

info_hash: E80883E8C52E361657031BD4D87E9DB20FA62C97

Скачать .torrent

Скачать

18 KB

Статус: проверено
Скачано: 5 раза
Размер: 113 MB
 
Показать сообщения:    
Ответить на тему

Текущее время: 20-Май 09:56

Часовой пояс: UTC ± 0



Вы не можете начинать темы
Вы не можете отвечать на сообщения
Вы не можете редактировать свои сообщения
Вы не можете удалять свои сообщения
Вы не можете голосовать в опросах
Вы не можете прикреплять файлы к сообщениям
Вы можете скачивать файлы

[  Время выполнения: 0.0479 сек  |  MySQL: 0.0152 сек (32%) · 8 запр.  |  сжатие Gzip: выкл  |  Память: 429.79 KB / 2.35 MB / 1.5 MB  ] |  |  |