Заповедник (Анна Матисон) [2018, комедия, WEB-DLRip]

Ответить на тему
Статистика раздачи
Размер:  1.46 GB   |    Зарегистрирован:  5 года 1 месяц   |    Скачано:  1 раз
Список скачавших: Нет

Полного источника не было: Никогда

     
 
Автор Сообщение

Гость ®

Создавать темы 01-Май-2019 16:45 | #1

[Цитировать]

Заповедник
Страна: Россия
Жанр: комедия
Год выпуска: 2018
Продолжительность: 01:48:12
Субтитры: нет-Режиссер: Анна Матисон-В ролях: Сергей Безруков, Евгения Крегжде, Анна Михалкова, Гоша Куценко, Александр Семчев, Дмитрий Хрусталев, Виктор Бычков, Софья Евстигнеева, Ярослава Дегтярёва, Леонид Агутин-Описание: Константин, автор песен и виртуозный гитарист, сбегает от накопившихся проблем в заповедник «Михайловское». Костя давно лишился всех способов заработка, почти отчаялся быть услышанным и живет по инерции, часто налегая на алкоголь. Жена и дочь собираются уезжать в Канаду, а в голове бесконечно крутятся вопросы: что именно пошло не так? Как это исправить? Нужно ли вообще кому-то моё творчество, или я сам убедил себя в этом? Возможно, у Константина и достаточно сил, чтобы попытаться всё изменить, но он сильно сомневается, что есть, ради чего и ради кого стараться. Тем не менее, Заповедник — на то и Заповедник, чтобы собраться с мыслями, разбить минное поле собственной жизни на участки и приняться за работу.- -Качество видео: WEB-DLRip
Формат видео: AVI
Видео: 704x288 (2.44:1), 23.976 fps, XviD build 73 ~1534 kbps avg, 0.32 bit/pixel
Аудио: 48 kHz, AC3 Dolby Digital, 3/2 (L,C,R,l,r) + LFE ch, ~384 kbps - iTunes-Сэмпл-

MediaInfo

Код:Формат : AVI
Формат/Информация : Audio Video Interleave
Размер файла : 1,46 Гбайт
Продолжительность : 1 ч. 48 м.
Общий поток : 1928 Кбит/сек
Название фильма : Заповедник_2018_WEB-DLRip
Программа кодирования : VirtualDubMod 1.5.10.3 | www.virtualdub-fr.org || (build 2550/release) VirtualDubMod build 2550/release
Авторское право : порошков
Видео
Идентификатор : 0
Формат : MPEG-4 Visual
Профиль формата : Advanced Simple@L5
Настройки формата : BVOP1 / Custom Matrix
Параметр BVOP формата : 1
Параметр QPel формата : Нет
Параметр GMC формата : Без точки перехода
Параметр матрицы формата : Выборочная
Идентификатор кодека : XVID
Идентификатор кодека/Подсказка : XviD
Продолжительность : 1 ч. 48 м.
Битрейт : 1534 Кбит/сек
Ширина : 704 пикселя
Высота : 288 пикселей
Соотношение сторон : 2,40:1
Частота кадров : 23,976 (24000/1001) кадра/сек
Цветовое пространство : YUV
Субдискретизация насыщенности : 4:2:0
Битовая глубина : 8 бит
Тип развёртки : Прогрессивная
Метод сжатия : С потерями
Бит/(Пиксели*Кадры) : 0.316
Размер потока : 1,16 Гбайт (80%)
Библиотека кодирования : XviD 73
Аудио
Идентификатор : 1
Формат : AC-3
Формат/Информация : Audio Coding 3
Коммерческое название : Dolby Digital
Идентификатор кодека : 2000
Продолжительность : 1 ч. 48 м.
Вид битрейта : Постоянный
Битрейт : 384 Кбит/сек
Каналы : 6 каналов
ChannelLayout : L R C LFE Ls Rs
Частота : 48,0 КГц
Частота кадров : 31,250 кадров/сек (1536 SPF)
Битовая глубина : 16 бит
Метод сжатия : С потерями
Размер потока : 297 Мбайт (20%)
Выравнивание : Разделение по промежуткам
Продолжительность промежутка : 42 мс. (1,00 видеокадр)
Время предзагрузки промежутка : 500 мс.
Язык : Русский
ServiceKind/String : Complete Main

Скриншоты


Заповедник (Анна Матисон) [2018, комедия, WEB-DLRip] [cybertorrent.pro-2405].torrent 
Торрент: Зарегистрирован [ 2019-05-01 16:45 ]

info_hash: 32C306B567D57FC91B856FFFF30A348B53CBE94C

Скачать .torrent

Скачать

15 KB

Статус: проверено
Скачано: 1 раз
Размер: 1.46 GB
 
Показать сообщения:    
Ответить на тему

Текущее время: 16-Июн 11:55

Часовой пояс: UTC ± 0



Вы не можете начинать темы
Вы не можете отвечать на сообщения
Вы не можете редактировать свои сообщения
Вы не можете удалять свои сообщения
Вы не можете голосовать в опросах
Вы не можете прикреплять файлы к сообщениям
Вы можете скачивать файлы

[  Время выполнения: 0.0467 сек  |  MySQL: 0.0146 сек (31%) · 8 запр.  |  сжатие Gzip: выкл  |  Память: 429.79 KB / 2.36 MB / 1.51 MB  ] |  |  |