Жирафа / Зарафа / Zarafa (Реми Безансон / Rémi Bezançon, Жан-Кристоф Ли / Jean-Christophe Lie) [2012, Франция, мультфильм, семейный, BDRip] Dub (Пифагор)

Ответить на тему
Статистика раздачи
Размер:  1.46 GB   |    Зарегистрирован:  5 года 1 месяц   |    Скачано:  5 раза
Список скачавших: Нет

Полного источника не было: Никогда

     
 
Автор Сообщение

karlll ®

Пол: Не указан

Зарегистрированный: 5 года 3 месяца

Сообщений: 162

Создавать темы 01-Май-2019 16:44 | #1 · Автор

[Цитировать]

Жирафа / Зарафа / Zarafa
Страна: Франция
Жанр: мультфильм, семейный
Год выпуска: 2012
Продолжительность: 01:18:33-Перевод: Профессиональный (дублированный) | Студия "Пифагор" по заказу компании "WEST"
Субтитры: нет
Оригинальная аудиодорожка: нет-Режиссер: Реми Безансон / Rémi Bezançon, Жан-Кристоф Ли / Jean-Christophe Lie-В ролях: Макс Ренаудин, Симон Абкарян, Франсуа-Ксавье Демезон, Вернон Добчефф, Роже Дюма, Ронит Элькабец, Мохамед Феллаг, Дебора Франсуа, Тьерри Фремон, Филипп Морье-Жану-Описание: Судан, 19-й век. Десятилетний мальчик Маки cбегает от захватившего его французского работорговца и находит друга - молодую жирафу, оставшуюся сиротой и, к сожалению, предназначенную стать подарком королю Франции Карлу X, в обмен на его поддержку в войне против турков, осадивших Александрию...
Мультфильм, снятый в формате 2D и вышедший на экраны в 2012 году, является вольной интерпретацией реальной истории: прибытия во Францию первого жирафа в 1826 году, подаренного пашой Египта Мухаммедом Али - королю Шарлю X, чтобы обогатить коллекцию животных королевского Ботанического Сада, что вызвало в стране настоящую "жирафоманию".
Авторы ленты - Реми Безансон, известный по фильму "Первый день остатка твоей жизни", и Жан-Кристоф Ли, создатель мультфильмов "Трио из Бельвиля" и "Кирику и дикие звери" - рассказывают нам замечательную умную сказку, наполненную захватывающими приключениями и сильными эмоциями на фоне картин жестокой колониальной эпохи.
Простую и элегантную графику обрамляет чудесная музыка Лорена Переза, навеянная темой из фильма "Лоуренс Аравийский", что делает этот фильм одинаково интересным и поучительным для всей семьи.- -Качество видео: BDRip
Формат видео: AVI
Видео: 720x304 (2.37:1), 24.000 fps, XviD build 73 ~2196 kbps avg, 0.42 bit/pixel
Аудио: 48 kHz, AC3 Dolby Digital, 3/2 (L,C,R,l,r) + LFE ch, ~448 kbps-Сэмпл-

MediaInfo

Код:Формат : AVI
Формат/Информация : Audio Video Interleave
Размер файла : 1,46 Гбайт
Продолжительность : 1 ч. 18 м.
Общий поток : 2654 Кбит/сек
Название фильма : Жирафа_2012_BDRip
Программа кодирования : VirtualDubMod 1.5.10.3 | www.virtualdub-fr.org || (build 2550/release)
Авторское право : порошков
Видео
Идентификатор : 0
Формат : MPEG-4 Visual
Профиль формата : Advanced Simple@L5
Настройки формата : BVOP1 / Custom Matrix
Параметр BVOP формата : 1
Параметр QPel формата : Нет
Параметр GMC формата : Без точки перехода
Параметр матрицы формата : Выборочная
Идентификатор кодека : XVID
Идентификатор кодека/Подсказка : XviD
Продолжительность : 1 ч. 18 м.
Битрейт : 2196 Кбит/сек
Ширина : 720 пикселей
Высота : 304 пикселя
Соотношение сторон : 2,35:1
Частота кадров : 24,000 кадра/сек
Цветовое пространство : YUV
Субдискретизация насыщенности : 4:2:0
Битовая глубина : 8 бит
Тип развёртки : Прогрессивная
Метод сжатия : С потерями
Бит/(Пиксели*Кадры) : 0.418
Размер потока : 1,21 Гбайт (83%)
Библиотека кодирования : XviD 73
Аудио
Идентификатор : 1
Формат : AC-3
Формат/Информация : Audio Coding 3
Коммерческое название : Dolby Digital
Идентификатор кодека : 2000
Продолжительность : 1 ч. 18 м.
Вид битрейта : Постоянный
Битрейт : 448 Кбит/сек
Каналы : 6 каналов
ChannelLayout : L R C LFE Ls Rs
Частота : 48,0 КГц
Частота кадров : 31,250 кадров/сек (1536 SPF)
Битовая глубина : 16 бит
Метод сжатия : С потерями
Размер потока : 252 Мбайт (17%)
Выравнивание : Разделение по промежуткам
Продолжительность промежутка : 42 мс. (1,00 видеокадр)
Время предзагрузки промежутка : 500 мс.
ServiceKind/String : Complete Main

Скриншоты


Жирафа / Зарафа / Zarafa (Реми Безансон / Rémi Bezançon, Жан-Кристоф Ли / Jean-Christophe Lie) [2012, Франция, мультфильм, семейный, BDRip] Dub (Пифагор) [cybertorrent.pro-2414].torrent 
Торрент: Зарегистрирован [ 2019-05-01 16:45 ]

info_hash: 9B9F186D6F098D6FBB785E8F28A56F66A7127950

Скачать .torrent

Скачать

15 KB

Статус: проверено
Скачано: 5 раза
Размер: 1.46 GB
[Профиль] [ЛС]
Показать сообщения:    
Ответить на тему

Текущее время: 16-Июн 12:11

Часовой пояс: UTC ± 0



Вы не можете начинать темы
Вы не можете отвечать на сообщения
Вы не можете редактировать свои сообщения
Вы не можете удалять свои сообщения
Вы не можете голосовать в опросах
Вы не можете прикреплять файлы к сообщениям
Вы можете скачивать файлы

[  Время выполнения: 0.0514 сек  |  MySQL: 0.0130 сек (25%) · 8 запр.  |  сжатие Gzip: выкл  |  Память: 429.79 KB / 2.36 MB / 1.51 MB  ] |  |  |