Прочти и катай в Париж и Китай (Анатолий Каранович, Теодор Бунимович) [1960, СССР, мультфильм, TVRip]

Ответить на тему
Статистика раздачи
Размер:  123 MB   |    Зарегистрирован:  5 года 2 месяца   |    Скачано:  6 раза
Список скачавших: Нет

Полного источника не было: Никогда

     
 
Автор Сообщение

Гость ®

Создавать темы 01-Май-2019 16:44 | #1

[Цитировать]

Прочти и катай в Париж и Китай
Страна: СССР
Жанр: мультфильм
Продолжительность: 00:09:36
Год выпуска: 1960
Режиссёры: Анатолий Каранович, Теодор Бунимович
Описание: Экранизация одноимённого детского стихотворения Владимира Маяковского.
Пионеры отправляются в путешествие вокруг света и знакомятся с жизнью людей в разных странах.
Качество: TVRip
Формат: AVI
Видео: 1584 kbps, 704х528 (4:3), 25.000 fps, MPEG-4 Visual (XviD)
Аудио: 192 kbps, 44.1 kHz, 2 channels, MPEG Audio (MP3)
Субтитры: отсутствуют

Подробные технические данные

General
Complete name : Прочти и катай в Париж и Китай (1960).avi
Format : AVI
Format/Info : Audio Video Interleave
File size : 123 MiB
Duration : 9mn 36s
Overall bit rate : 1 789 Kbps
Writing application : MEncoder SVN-r30881(20100311-gcc4.3.3)
Writing library : MPlayer
Video
ID : 0
Format : MPEG-4 Visual
Format profile : Advanced Simple@L5
Format settings, BVOP : 2
Format settings, QPel : No
Format settings, GMC : No warppoints
Format settings, Matrix : Default (H.263)
Codec ID : XVID
Codec ID/Hint : XviD
Duration : 9mn 36s
Bit rate : 1 584 Kbps
Width : 704 pixels
Height : 528 pixels
Display aspect ratio : 4:3
Original display aspect ratio : 4:3
Frame rate : 25.000 fps
Color space : YUV
Chroma subsampling : 4:2:0
Bit depth : 8 bits
Scan type : Progressive
Compression mode : Lossy
Bits/(Pixel*Frame) : 0.171
Stream size : 109 MiB (89%)
Writing library : XviD 1.2.1 (UTC 2008-12-04)
Audio
ID : 1
Format : MPEG Audio
Format version : Version 1
Format profile : Layer 3
Mode : Joint stereo
Mode extension : MS Stereo
Codec ID : 55
Codec ID/Hint : MP3
Duration : 9mn 36s
Bit rate mode : Constant
Bit rate : 192 Kbps
Channel(s) : 2 channels
Sampling rate : 44.1 KHz
Compression mode : Lossy
Delay relative to video : 40ms
Stream size : 13.2 MiB (11%)
Alignment : Aligned on interleaves
Interleave, duration : 26 ms (0.65 video frame)
Interleave, preload duration : 522 ms

Скриншоты

Прочти и катай в Париж и Китай (Анатолий Каранович, Теодор Бунимович) [1960, СССР, мультфильм, TVRip] [cybertorrent.pro-2418].torrent 
Торрент: Зарегистрирован [ 2019-05-01 16:45 ]

info_hash: 41EF118746EDE85E2C00F13889EB4B265F26D8A6

Скачать .torrent

Скачать

20 KB

Статус: проверено
Скачано: 6 раза
Размер: 123 MB
 
Показать сообщения:    
Ответить на тему

Текущее время: 23-Июл 11:39

Часовой пояс: UTC ± 0



Вы не можете начинать темы
Вы не можете отвечать на сообщения
Вы не можете редактировать свои сообщения
Вы не можете удалять свои сообщения
Вы не можете голосовать в опросах
Вы не можете прикреплять файлы к сообщениям
Вы можете скачивать файлы

[  Время выполнения: 0.0441 сек  |  MySQL: 0.0106 сек (24%) · 8 запр.  |  сжатие Gzip: выкл  |  Память: 429.99 KB / 2.35 MB / 1.5 MB  ] |  |  |