Операция Тень / Operasjon Morkemann (Грета Бёэ / Grethe Bøe-Waal) [2018, Норвегия, Семейный, приключения, WEBRip] MVO (Синема УС)

Ответить на тему
Статистика раздачи
Размер:  1.37 GB   |    Зарегистрирован:  4 года 11 месяца   |    Скачано:  1 раз
Список скачавших: Нет

Полного источника не было: Никогда

     
 
Автор Сообщение

солнышко ®

Пол: Женский

Зарегистрированный: 5 года 1 месяц

Сообщений: 712

Создавать темы 01-Май-2019 16:44 | #1 · Автор

[Цитировать]

Операция Тень / Operasjon Morkemann
Страна: Норвегия
Жанр: Семейный, приключения
Год выпуска: 2018
Продолжительность: 01:21:51
Перевод: Любительский (многоголосый закадровый) Синема УС
Субтитры: нет
Режиссер: Грета Бёэ / Grethe Bøe-Waal
В ролях: Кайса Гурин Антонсен, Девин, Ульрикке Хансен Дёвиген, Йон Эйкемо, Томас Фарествейт, Лизе Фьелдстад, Томми Хайвинг, Эмма Килэйн, Аврора Линдсет-Лёкка, Эйстейн Рёгер
Описание: Детективы агентства №2 Тирил и Оливер пытаются с помощью деда разгадать загадку таинственного Человека-тени, который в тёмное время суток появляется на лесной поляне и зачем-то копает землю в разных местах.
Доп. информация: Без рекламы
Сэмпл: https://www.sendspace.com/file/9f2lcs
Качество видео: WEBRip
Формат видео: AVI
Видео: XviD, 720 х 304 пикс, 23,976 кадра/сек, ~ 2200 Кбит/сек, 0.418 Бит/(Пиксели*Кадры)
Аудио: AC-3, 48,0 КГц, 192 Кбит/сек Постоянный, 2 канала Front: L R

MediaInfo

Общее
Полное имя : C:\фильмы\02 возможно для раздачи\Операция тень 2018г\Операция Тень 2018г.avi
Формат : AVI
Формат/Информация : Audio Video Interleave
Размер файла : 1,37 Гбайт
Продолжительность : 1 ч. 21 м.
Общий поток : 2397 Кбит/сек
Видео
Идентификатор : 0
Формат : MPEG-4 Visual
Профиль формата : Simple@L3
Параметр BVOP формата : Нет
Параметр QPel формата : Нет
Параметр GMC формата : Без точки перехода
Параметр матрицы формата : Default (H.263)
Идентификатор кодека : XVID
Идентификатор кодека/Подсказка : XviD
Продолжительность : 1 ч. 21 м.
Битрейт : 2196 Кбит/сек
Ширина : 720 пикселей
Высота : 304 пикселя
Соотношение сторон : 2,35:1
Частота кадров : 23,976 кадра/сек
Цветовое пространство : YUV
Субдискретизация насыщенности : 4:2:0
Битовая глубина : 8 бит
Тип развёртки : Прогрессивная
Метод сжатия : С потерями
Бит/(Пиксели*Кадры) : 0.418
Размер потока : 1,26 Гбайт (92%)
Библиотека кодирования : XviD 64
Аудио
Идентификатор : 1
Формат : AC-3
Формат/Информация : Audio Coding 3
Расширение режима : CM (complete main)
Параметр Endianness формата : Big
Идентификатор кодека : 2000
Продолжительность : 1 ч. 21 м.
Продолжительность оригинала : 1 ч. 21 м.
Вид битрейта : Постоянный
Битрейт : 192 Кбит/сек
Каналы : 2 канала
Расположение каналов : Front: L R
Частота : 48,0 КГц
Битовая глубина : 16 бит
Метод сжатия : С потерями
Размер потока : 112 Мбайт (8%)
Выравнивание : Соединение по промежуткам
Продолжительность промежутка : 42 мс. (1,00 видеокадр)

Скриншоты, в т.ч. скриншот названия


Предыдущие или аналогичные раздачи

пока нет

источник рипа

сайт Близзардкидс
Спасибо, raspisuha! за фильм с озвучкой без рекламы!

форум "фильмы о собаках и волках"

http://rutracker.org/forum/viewtopic.php?t=1144862
Операция Тень / Operasjon Morkemann (Грета Бёэ / Grethe Bøe-Waal) [2018, Норвегия, Семейный, приключения, WEBRip] MVO (Синема УС) [cybertorrent.pro-2426].torrent 
Торрент: Зарегистрирован [ 2019-05-01 16:45 ]

info_hash: BD2208F84FFA185F008EB8A69A422986BBFEFACD

Скачать .torrent

Скачать

14 KB

Статус: проверено
Скачано: 1 раз
Размер: 1.37 GB
[Профиль] [ЛС]
Показать сообщения:    
Ответить на тему

Текущее время: 23-Апр 05:34

Часовой пояс: UTC ± 0



Вы не можете начинать темы
Вы не можете отвечать на сообщения
Вы не можете редактировать свои сообщения
Вы не можете удалять свои сообщения
Вы не можете голосовать в опросах
Вы не можете прикреплять файлы к сообщениям
Вы можете скачивать файлы

[  Время выполнения: 0.0381 сек  |  MySQL: 0.0092 сек (24%) · 8 запр.  |  сжатие Gzip: выкл  |  Память: 429.79 KB / 2.37 MB / 1.51 MB  ] |  |  |