Лабиринты прошлого / Todos lo saben / Everybody Knows (Асгар Фархади / Asghar Farhadi) [2018, Испания, Франция, Италия, триллер, драма, криминал, детектив, HDRip] Dub (iTunes)

Ответить на тему
Статистика раздачи
   
 
Автор Сообщение

солнышко ®

Пол: Женский

Зарегистрированный: 5 года 3 месяца

Сообщений: 712

Создавать темы 02-Май-2019 17:09 | #1 · Автор

[Цитировать]

Лабиринты прошлого / Todos lo saben / Everybody Knows
Страна: Испания, Франция, Италия
Жанр: триллер, драма, криминал, детектив
Год выпуска: 2018
Продолжительность: 02:12:55-Перевод: Профессиональный (дублированный) | iTunes
Субтитры: нет
Оригинальная аудиодорожка: нет-Режиссер: Асгар Фархади / Asghar Farhadi-В ролях: Пенелопа Крус, Хавьер Бардем, Хайме Лорэнте, Барбара Ленни, Рикардо Дарин, Инма Куэста, Карла Кампра, Эльвира Мингес, Сара Саламо, Эдуард Фернандес-Описание: Испания, свадьба, друзья. Всего один день и неожиданное происшествие полностью меняет жизнь Лауры и Пако, некогда любивших друг друга. Им придется столкнуться лицом к лицу со своим прошлым, чтобы предотвратить непоправимое.- -Качество видео: HDRip
Формат видео: AVI
Видео: 720x384 (1.88:1), 23.976 fps, XviD build 73 ~1365 kbps avg, 0.21 bit/pixel
Аудио: 48 kHz, AC3 Dolby Digital, 2/0 (L,R) ch, ~192 kbps-Сэмпл-

MediaInfo

Код:Формат : AVI
Формат/Информация : Audio Video Interleave
Размер файла : 1,45 Гбайт
Продолжительность : 2 ч. 12 м.
Общий поток : 1566 Кбит/сек
Программа кодирования : VirtualDubMod 1.5.10.3 | www.virtualdub-fr.org || (build 2550/release)
Библиотека кодирования : VirtualDubMod build 2550/release
Видео
Идентификатор : 0
Формат : MPEG-4 Visual
Профиль формата : Advanced Simple@L5
Настройки формата : BVOP1 / Custom Matrix
Параметр BVOP формата : 1
Параметр QPel формата : Нет
Параметр GMC формата : Без точки перехода
Параметр матрицы формата : Выборочная
Идентификатор кодека : XVID
Идентификатор кодека/Подсказка : XviD
Продолжительность : 2 ч. 12 м.
Битрейт : 1365 Кбит/сек
Ширина : 720 пикселей
Высота : 384 пикселя
Соотношение сторон : 1,85:1
Частота кадров : 23,976 (24000/1001) кадра/сек
Цветовое пространство : YUV
Субдискретизация насыщенности : 4:2:0
Битовая глубина : 8 бит
Тип развёртки : Прогрессивная
Метод сжатия : С потерями
Бит/(Пиксели*Кадры) : 0.206
Размер потока : 1,27 Гбайт (87%)
Библиотека кодирования : XviD 73
Аудио
Идентификатор : 1
Формат : AC-3
Формат/Информация : Audio Coding 3
Коммерческое название : Dolby Digital
Идентификатор кодека : 2000
Продолжительность : 2 ч. 12 м.
Вид битрейта : Постоянный
Битрейт : 192 Кбит/сек
Каналы : 2 канала
ChannelLayout : L R
Частота : 48,0 КГц
Частота кадров : 31,250 кадров/сек (1536 SPF)
Битовая глубина : 16 бит
Метод сжатия : С потерями
Размер потока : 182 Мбайт (12%)
Выравнивание : Разделение по промежуткам
Продолжительность промежутка : 42 мс. (1,00 видеокадр)
Время предзагрузки промежутка : 500 мс.
ServiceKind/String : Complete Main

Скриншоты


[Профиль] [ЛС]
Показать сообщения:    
Ответить на тему

Текущее время: 16-Июн 11:22

Часовой пояс: UTC ± 0



Вы не можете начинать темы
Вы не можете отвечать на сообщения
Вы не можете редактировать свои сообщения
Вы не можете удалять свои сообщения
Вы не можете голосовать в опросах
Вы не можете прикреплять файлы к сообщениям
Вы не можете скачивать файлы

[  Время выполнения: 0.0488 сек  |  MySQL: 0.0040 сек (8%) · 4 запр.  |  сжатие Gzip: выкл  |  Память: 429.79 KB / 1.99 MB / 1.41 MB  ] |  |  |