Кто меня толкнул? (Роман Давыдов) [1973, СССР, мультфильм, WEBRip]

Ответить на тему
Статистика раздачи
Размер:  60 MB   |    Зарегистрирован:  5 года   |    Скачано:  2 раза
Список скачавших: Нет

Полного источника не было: Никогда

     
 
Автор Сообщение

Гость ®

Создавать темы 18-Мар-2019 10:00 | #1

[Цитировать]

Кто меня толкнул?
Страна: СССР
Жанр: мультфильм
Продолжительность: 00:04:40
Год выпуска: 1973
Русские субтитры: нет
Режиссёр: Роман Давыдов
Описание: Познавательный фильм о силе инерции и правилах безопасности уличного движения.
Качество: WEBRip
Формат: AVI
Видео: 1569 kbps, 704х528 (4:3), 25.000 fps, MPEG-4 Visual (XviD)
Аудио: 192 kbps, 44.1 kHz, 2 channels, MPEG Audio (MP3)
Субтитры: отсутствуют

Подробные технические данные

General
Complete name : Кто меня толкнул (1973).avi
Format : AVI
Format/Info : Audio Video Interleave
File size : 60.2 MiB
Duration : 4mn 40s
Overall bit rate : 1 800 Kbps
Writing application : Lavf57.41.100
Writing library : VirtualDub build 35491/release
Video
ID : 0
Format : MPEG-4 Visual
Format profile : Advanced Simple@L5
Format settings, BVOP : 2
Format settings, QPel : No
Format settings, GMC : No warppoints
Format settings, Matrix : Default (H.263)
Codec ID : XVID
Codec ID/Hint : XviD
Duration : 4mn 40s
Bit rate : 1 596 Kbps
Width : 704 pixels
Height : 528 pixels
Display aspect ratio : 4:3
Frame rate : 25.000 fps
Color space : YUV
Chroma subsampling : 4:2:0
Bit depth : 8 bits
Scan type : Progressive
Compression mode : Lossy
Bits/(Pixel*Frame) : 0.172
Stream size : 53.4 MiB (89%)
Writing library : XviD 73
Audio
ID : 1
Format : MPEG Audio
Format version : Version 1
Format profile : Layer 3
Mode : Joint stereo
Mode extension : MS Stereo
Codec ID : 55
Codec ID/Hint : MP3
Duration : 4mn 40s
Bit rate mode : Constant
Bit rate : 192 Kbps
Channel(s) : 2 channels
Sampling rate : 44.1 KHz
Compression mode : Lossy
Stream size : 6.42 MiB (11%)
Alignment : Aligned on interleaves
Interleave, duration : 26 ms (0.65 video frame)
Interleave, preload duration : 522 ms
Writing library : LAME3.992

Скриншоты

Кто меня толкнул? (Роман Давыдов) [1973, СССР, мультфильм, WEBRip] [cybertorrent.pro-246].torrent 
Торрент: Зарегистрирован [ 2019-03-18 10:04 ]

info_hash: A8B668FC4ED222E3A080A0FAA6D7378595B3EB15

Скачать .torrent

Скачать

19 KB

Статус: проверено
Скачано: 2 раза
Размер: 60 MB
 
Показать сообщения:    
Ответить на тему

Текущее время: 18-Апр 07:37

Часовой пояс: UTC ± 0



Вы не можете начинать темы
Вы не можете отвечать на сообщения
Вы не можете редактировать свои сообщения
Вы не можете удалять свои сообщения
Вы не можете голосовать в опросах
Вы не можете прикреплять файлы к сообщениям
Вы можете скачивать файлы

[  Время выполнения: 0.0828 сек  |  MySQL: 0.0494 сек (60%) · 10 запр.  |  сжатие Gzip: выкл  |  Память: 429.79 KB / 2.36 MB / 1.5 MB  ] |  |  |