Американский пижон / American Dresser (Кармин Каньялоси / Carmine Cangelosi) [2018, США, драма, приключения, HDRip] MVO (HDrezka Studio)

Ответить на тему
Статистика раздачи
   
 
Автор Сообщение

солнышко ®

Пол: Женский

Зарегистрированный: 5 года 2 месяца

Сообщений: 712

Создавать темы 03-Май-2019 15:36 | #1 · Автор

[Цитировать]

Американский пижон / American Dresser
Страна: США
Жанр: драма, приключения
Год выпуска: 2018
Продолжительность: 01:37:29-Перевод: Любительский (многоголосый закадровый) | HDrezka Studio
Субтитры: нет
Оригинальная аудиодорожка: нет-Режиссер: Кармин Каньялоси / Carmine Cangelosi-В ролях: Джина Гершон, Пенелопа Энн Миллер, Том Беренджер, Кит Дэвид, Джефф Фэйи, Брюс Дерн, Кэтрин Нардуччи, Эндрю Бринярски, Бекки О’Донахью, Эль МакЛемор-Описание: После 30 лет брака жена Джона Сандра умирает от рака. Вдовец подавлен и топит себя в выпивке, в то время как его две дочери не могут вернуть отца к жизни. В вещах жены Джон находит загадочное письмо, адресованное ему несколько десятилетий назад. Он решает отправиться на западное побережье, чтобы разгадать тайну находки. Полируя свой старый мотоцикл, Джон приглашает с собой приятеля Чарли, который вот-вот потеряет ногу из-за болезни и хочет в последний раз проехаться по Америке. Пересекая границы штатов, Джон и Чарли встречают кучу разных людей и несмотря на свои личные проблемы уверенно едут на запад.-Качество видео: HDRip
Формат видео: AVI
Видео: 720x304 (2.37:1), 23.976 fps, XviD build 73 ~1936 kbps avg, 0.37 bit/pixel
Аудио: 48 kHz, AC3 Dolby Digital, 2/0 (L,R) ch, ~192 kbps-Сэмпл-

MediaInfo

Код:Формат : AVI
Формат/Информация : Audio Video Interleave
Размер файла : 1,46 Гбайт
Продолжительность : 1 ч. 37 м.
Общий поток : 2138 Кбит/сек
Название фильма : Американский пижон_2018_HDRip
Программа кодирования : VirtualDubMod 1.5.10.3 | www.virtualdub-fr.org || (build 2550/release)
Авторское право : порошков
Видео
Идентификатор : 0
Формат : MPEG-4 Visual
Профиль формата : Advanced Simple@L5
Настройки формата : BVOP1 / Custom Matrix
Параметр BVOP формата : 1
Параметр QPel формата : Нет
Параметр GMC формата : Без точки перехода
Параметр матрицы формата : Выборочная
Идентификатор кодека : XVID
Идентификатор кодека/Подсказка : XviD
Продолжительность : 1 ч. 37 м.
Битрейт : 1936 Кбит/сек
Ширина : 720 пикселей
Высота : 304 пикселя
Соотношение сторон : 2,35:1
Частота кадров : 23,976 (24000/1001) кадра/сек
Цветовое пространство : YUV
Субдискретизация насыщенности : 4:2:0
Битовая глубина : 8 бит
Тип развёртки : Прогрессивная
Метод сжатия : С потерями
Бит/(Пиксели*Кадры) : 0.369
Размер потока : 1,32 Гбайт (91%)
Библиотека кодирования : XviD 73
Аудио
Идентификатор : 1
Формат : AC-3
Формат/Информация : Audio Coding 3
Коммерческое название : Dolby Digital
Идентификатор кодека : 2000
Продолжительность : 1 ч. 37 м.
Вид битрейта : Постоянный
Битрейт : 192 Кбит/сек
Каналы : 2 канала
ChannelLayout : L R
Частота : 48,0 КГц
Частота кадров : 31,250 кадров/сек (1536 SPF)
Битовая глубина : 16 бит
Метод сжатия : С потерями
Размер потока : 134 Мбайт (9%)
Выравнивание : Разделение по промежуткам
Продолжительность промежутка : 42 мс. (1,00 видеокадр)
Время предзагрузки промежутка : 500 мс.
ServiceKind/String : Complete Main

Скриншоты


[Профиль] [ЛС]
Показать сообщения:    
Ответить на тему

Текущее время: 18-Май 14:08

Часовой пояс: UTC ± 0



Вы не можете начинать темы
Вы не можете отвечать на сообщения
Вы не можете редактировать свои сообщения
Вы не можете удалять свои сообщения
Вы не можете голосовать в опросах
Вы не можете прикреплять файлы к сообщениям
Вы не можете скачивать файлы

[  Время выполнения: 0.0380 сек  |  MySQL: 0.0047 сек (12%) · 4 запр.  |  сжатие Gzip: выкл  |  Память: 429.79 KB / 1.99 MB / 1.4 MB  ] |  |  |