Я поймал Дьявола / I Trapped the Devil (Джош Лобо / Josh Lobo) [2019, США, ужасы, WEB-DLRip] MVO (HDRezka Studio)

Ответить на тему
Статистика раздачи
Размер:  1.46 GB   |    Зарегистрирован:  4 года 11 месяца   |    Скачано:  2 раза
Список скачавших: Нет

Полного источника не было: Никогда

     
 
Автор Сообщение

Гость ®

Создавать темы 03-Май-2019 15:36 | #1

[Цитировать]

Я поймал Дьявола / I Trapped the Devil
Страна: США
Жанр: ужасы
Год выпуска: 2019
Продолжительность: 01:23:49-Перевод: Любительский (многоголосый закадровый) | HDRezka Studio
Субтитры: нет
Оригинальная аудиодорожка: нет-Режиссер:
Джош Лобо / Josh Lobo-В ролях:
Крис Салливан, Джоселин Донахью, Эй Джей Боуэн, Сьюзэн Бурк, Скотт Пойтресс, Джон Марротт, Роуэн Расселл-Описание:
Мэтт с женой Карэн в преддверии Рождества решает сделать брату Стиву сюрприз, и супруги без предупреждения приезжают к нему в гости. Но радостное воссоединение семьи омрачается неожиданным открытием. Оказывается, в подвале у Стива кто-то заперт, и сам парень уверен, что пленник не кто иной, как сам Дьявол. Первоначальный шок супругов сменяется паранойей, праздничные выходные оборачиваются кошмаром.-Качество видео: WEB-DLRip
Формат видео: AVI
Видео: 704x304 (2.32:1), 23.976 fps, XviD build 73 ~2284 kbps avg, 0.45 bit/pixel
Аудио: 48 kHz, AC3 Dolby Digital, 2/0 (L,R) ch, ~192 kbps-Сэмпл-

MediaInfo

Код:Формат : AVI
Формат/Информация : Audio Video Interleave
Размер файла : 1,46 Гбайт
Продолжительность : 1 ч. 23 м.
Общий поток : 2486 Кбит/сек
Название фильма : Я поймал Дьявола_2019_WEB-DLRip
Программа кодирования : VirtualDubMod 1.5.10.3 | www.virtualdub-fr.org || (build 2550/release)
Авторское право : порошков
Видео
Идентификатор : 0
Формат : MPEG-4 Visual
Профиль формата : Advanced Simple@L5
Настройки формата : BVOP1 / Custom Matrix
Параметр BVOP формата : 1
Параметр QPel формата : Нет
Параметр GMC формата : Без точки перехода
Параметр матрицы формата : Выборочная
Идентификатор кодека : XVID
Идентификатор кодека/Подсказка : XviD
Продолжительность : 1 ч. 23 м.
Битрейт : 2284 Кбит/сек
Ширина : 704 пикселя
Высота : 304 пикселя
Соотношение сторон : 2,35:1
Частота кадров : 23,976 (24000/1001) кадра/сек
Цветовое пространство : YUV
Субдискретизация насыщенности : 4:2:0
Битовая глубина : 8 бит
Тип развёртки : Прогрессивная
Метод сжатия : С потерями
Бит/(Пиксели*Кадры) : 0.445
Размер потока : 1,34 Гбайт (92%)
Библиотека кодирования : XviD 73
Аудио
Идентификатор : 1
Формат : AC-3
Формат/Информация : Audio Coding 3
Коммерческое название : Dolby Digital
Идентификатор кодека : 2000
Продолжительность : 1 ч. 23 м.
Вид битрейта : Постоянный
Битрейт : 192 Кбит/сек
Каналы : 2 канала
ChannelLayout : L R
Частота : 48,0 КГц
Частота кадров : 31,250 кадров/сек (1536 SPF)
Битовая глубина : 16 бит
Метод сжатия : С потерями
Размер потока : 115 Мбайт (8%)
Выравнивание : Разделение по промежуткам
Продолжительность промежутка : 42 мс. (1,00 видеокадр)
Время предзагрузки промежутка : 500 мс.
ServiceKind/String : Complete Main

Скриншоты


Я поймал Дьявола / I Trapped the Devil (Джош Лобо / Josh Lobo) [2019, США, ужасы, WEB-DLRip] MVO (HDRezka Studio) [cybertorrent.pro-2487].torrent 
Торрент: Зарегистрирован [ 2019-05-03 15:36 ]

info_hash: 4D48F93998A77755698423893208111C5C97AAB2

Скачать .torrent

Скачать

15 KB

Статус: проверено
Скачано: 2 раза
Размер: 1.46 GB
 
Показать сообщения:    
Ответить на тему

Текущее время: 23-Апр 03:42

Часовой пояс: UTC ± 0



Вы не можете начинать темы
Вы не можете отвечать на сообщения
Вы не можете редактировать свои сообщения
Вы не можете удалять свои сообщения
Вы не можете голосовать в опросах
Вы не можете прикреплять файлы к сообщениям
Вы можете скачивать файлы

[  Время выполнения: 0.3992 сек  |  MySQL: 0.1634 сек (41%) · 10 запр.  |  сжатие Gzip: выкл  |  Память: 429.79 KB / 2.36 MB / 1.51 MB  ] |  |  |