Пленница. Побег / Flukt (Роар Утхауг / Roar Uthaug) [2012, Норвегия, драма, боевик, исторический, BDRip] MVO + Sub Rus, Eng + Original Nor

Ответить на тему
Статистика раздачи
Размер:  1.71 GB   |    Зарегистрирован:  4 года 11 месяца   |    Скачано:  1 раз
Список скачавших: Нет

Полного источника не было: Никогда

     
 
Автор Сообщение

Гость ®

Создавать темы 03-Май-2019 15:36 | #1

[Цитировать]

Пленница. Побег / Flukt
Страна: Норвегия
Жанр: драма, боевик, исторический
Год выпуска: 2012
Продолжительность: 01:21:37
Перевод: Профессиональный (многоголосый закадровый)
Субтитры: русские (kon2011), английские
Оригинальная аудиодорожка: норвежский
Режиссер: Роар Утхауг / Roar Uthaug
В ролях: Изабель Кристин Андерсен, Ингрид Болсай Бердал, Кристиан Эспедаль (Гаал), Халлвард Холмен, Бьорн Моан, Милла Олин, Ирен Реппен, Ейрик Холден Ротейм, Ганс Джейкоб Сэнд
Описание: Норвегия, 1363 год. После страшной эпидемии Великой Чумы, бушевавшей более десяти лет и унесшей жизни около половины населения страны, семья бедных крестьян отправляется на поиски лучшей жизни. Во время путешествия по горам они подвергаются нападению хищных и безжалостных бандитов, которые уводят в плен молодую девятнадцатилетнюю девушку Сигне. Оказавшись в лагере разбойников, Сигне понимает, что ей уготована судьба не многим лучшая, чем смерть. И что сейчас единственное для нее спасение заключается в бегстве.
Сэмпл
Качество видео: BDRip
Формат видео: AVI
Видео: 720x304 (2.37:1), 24 fps, XviD build 73 ~2349 kbps avg, 0.45 bit/pixel
Аудио: 48 kHz, AC3 Dolby Digital, 2/0 (L,R) ch, ~192 kbps - многоголосый
Аудио: 48 kHz, AC3 Dolby Digital, 3/2 (L,C,R,l,r) + LFE ch, ~448 kbps - оригинал (отдельным файлом)
Формат субтитров: softsub (SRT)

MediaInfo

General
Complete name : H:\Flukt.2012.bdrip_[1.46]_[teko]\Flukt.2012.bdrip_[1.46].avi
Format : AVI
Format/Info : Audio Video Interleave
File size : 1.45 GiB
Duration : 1h 21mn
Overall bit rate : 2 551 Kbps
Writing application : VirtualDubMod 1.5.10.3 | www.virtualdub-fr.org || (build 2550/release)
Writing library : VirtualDubMod build 2550/release
Video
ID : 0
Format : MPEG-4 Visual
Format profile : Advanced Simple@L5
Format settings, BVOP : 2
Format settings, QPel : No
Format settings, GMC : No warppoints
Format settings, Matrix : Custom
Codec ID : XVID
Codec ID/Hint : XviD
Duration : 1h 21mn
Bit rate : 2 350 Kbps
Width : 720 pixels
Height : 304 pixels
Display aspect ratio : 2.35:1
Frame rate : 24.000 fps
Color space : YUV
Chroma subsampling : 4:2:0
Bit depth : 8 bits
Scan type : Progressive
Compression mode : Lossy
Bits/(Pixel*Frame) : 0.447
Stream size : 1.34 GiB (92%)
Writing library : XviD 73
Audio
ID : 1
Format : AC-3
Format/Info : Audio Coding 3
Mode extension : CM (complete main)
Format settings, Endianness : Big
Codec ID : 2000
Duration : 1h 21mn
Bit rate mode : Constant
Bit rate : 192 Kbps
Channel(s) : 2 channels
Channel positions : Front: L R
Sampling rate : 48.0 KHz
Frame rate : 31.250 fps (1536 spf)
Compression mode : Lossy
Stream size : 112 MiB (8%)
Alignment : Split accross interleaves
Interleave, duration : 42 ms (1.00 video frame)
Interleave, preload duratio : 500 ms
Релиз группы:
--
Пленница. Побег / Flukt (Роар Утхауг / Roar Uthaug) [2012, Норвегия, драма, боевик, исторический, BDRip] MVO + Sub Rus, Eng + Original Nor [cybertorrent.pro-2489].torrent 
Торрент: Зарегистрирован [ 2019-05-03 15:36 ]

info_hash: BCEC4A67B4D720D9402AEA7393A7272EE7BABB37

Скачать .torrent

Скачать

18 KB

Статус: проверено
Скачано: 1 раз
Размер: 1.71 GB
 
Показать сообщения:    
Ответить на тему

Текущее время: 23-Апр 04:52

Часовой пояс: UTC ± 0



Вы не можете начинать темы
Вы не можете отвечать на сообщения
Вы не можете редактировать свои сообщения
Вы не можете удалять свои сообщения
Вы не можете голосовать в опросах
Вы не можете прикреплять файлы к сообщениям
Вы можете скачивать файлы

[  Время выполнения: 0.0403 сек  |  MySQL: 0.0101 сек (25%) · 8 запр.  |  сжатие Gzip: выкл  |  Память: 429.79 KB / 2.36 MB / 1.51 MB  ] |  |  |