Хрупкие плечи Дианы / Diane a les épaules / Diane Has the Right Shape (Фабьен Горжарт / Fabien Gorgeart) [2017, Франция, комедия, WEB-DLRip] VO (datynet) + Sub Rus + Original Fra

Ответить на тему
Статистика раздачи
Размер:  1.68 GB   |    Зарегистрирован:  4 года 11 месяца   |    Скачано:  0 раза
Список скачавших: Нет

Полного источника не было: Никогда

     
 
Автор Сообщение

солнышко ®

Пол: Женский

Зарегистрированный: 5 года 1 месяц

Сообщений: 712

Создавать темы 03-Май-2019 15:36 | #1 · Автор

[Цитировать]

Хрупкие плечи Дианы / Diane a les épaules / Diane Has the Right Shape
Страна: Франция
Жанр: комедия
Год выпуска: 2017
Продолжительность: 01:23:03
Перевод: Одноголосый закадровый - datynet
Субтитры: русские, английские
Оригинальная аудиодорожка: французский
Режиссер: Фабьен Горжарт / Fabien Gorgeart
В ролях: Клотильда Эсме, Фабрицио Ронджоне, Томас Сюир, Грегори Монтель, Алис Бюто, Оливье Рабурден, Мари Пьемонтез, Антуан Матьё, Клементин Нивдански, Марион Занн

Описание: Диана без колебаний соглашается выносить ребенка для своих лучших друзей Тома и Жака. И в этот довольно непростой жизненный период она влюбляется в Фабрицио.
Сэмпл
Качество видео: WEB-DLRip
Формат видео: AVI
Видео: 704x384 (1.83:1), 25 fps, XviD build 73 ~2305 kbps avg, 0.34 bit/pixel
Аудио: 48 kHz, AC3 Dolby Digital, 2/0 (L,R) ch, ~192 kbps - одноголосый
Аудио: 48 kHz, AC3 Dolby Digital, 3/2 (L,C,R,l,r) + LFE ch, ~384 kbps - оригинал (отдельным файлом)
Формат субтитров: softsub (SRT)

MediaInfo

General
Complete name : H:\Diane.a.les.epaules.web-dlrip_[1.46]_[teko]\Diane.a.les.epaules.web-dlrip_[1.46].avi
Format : AVI
Format/Info : Audio Video Interleave
File size : 1.45 GiB
Duration : 1h 23mn
Overall bit rate : 2 507 Kbps
Writing application : VirtualDubMod 1.5.10.3 | www.virtualdub-fr.org || (build 2550/release)
Writing library : VirtualDubMod build 2550/release
Video
ID : 0
Format : MPEG-4 Visual
Format profile : Advanced Simple@L5
Format settings, BVOP : 2
Format settings, QPel : No
Format settings, GMC : No warppoints
Format settings, Matrix : Custom
Codec ID : XVID
Codec ID/Hint : XviD
Duration : 1h 23mn
Bit rate : 2 305 Kbps
Width : 704 pixels
Height : 384 pixels
Display aspect ratio : 1.85:1
Frame rate : 25.000 fps
Color space : YUV
Chroma subsampling : 4:2:0
Bit depth : 8 bits
Scan type : Progressive
Compression mode : Lossy
Bits/(Pixel*Frame) : 0.341
Stream size : 1.34 GiB (92%)
Writing library : XviD 73
Audio
ID : 1
Format : AC-3
Format/Info : Audio Coding 3
Mode extension : CM (complete main)
Format settings, Endianness : Big
Codec ID : 2000
Duration : 1h 23mn
Bit rate mode : Constant
Bit rate : 192 Kbps
Channel(s) : 2 channels
Channel positions : Front: L R
Sampling rate : 48.0 KHz
Frame rate : 31.250 fps (1536 spf)
Compression mode : Lossy
Stream size : 114 MiB (8%)
Alignment : Split accross interleaves
Interleave, duration : 40 ms (1.00 video frame)
Interleave, preload duratio : 500 ms

Скриншоты

Релиз группы:
--
Хрупкие плечи Дианы / Diane a les épaules / Diane Has the Right Shape (Фабьен Горжарт / Fabien Gorgeart) [2017, Франция, комедия, WEB-DLRip] VO (datynet) + Sub Rus + Original Fra [cybertorrent.pro-2490].torrent 
Торрент: Зарегистрирован [ 2019-05-03 15:36 ]

info_hash: 7C0E50EB752D0E84AC1610DE571821DF85C028F4

Скачать .torrent

Скачать

18 KB

Статус: проверено
Скачано: 0 раза
Размер: 1.68 GB
[Профиль] [ЛС]
Показать сообщения:    
Ответить на тему

Текущее время: 18-Апр 11:03

Часовой пояс: UTC ± 0



Вы не можете начинать темы
Вы не можете отвечать на сообщения
Вы не можете редактировать свои сообщения
Вы не можете удалять свои сообщения
Вы не можете голосовать в опросах
Вы не можете прикреплять файлы к сообщениям
Вы можете скачивать файлы

[  Время выполнения: 0.0543 сек  |  MySQL: 0.0150 сек (28%) · 8 запр.  |  сжатие Gzip: выкл  |  Память: 429.79 KB / 2.37 MB / 1.51 MB  ] |  |  |