Шеф Адам Джонс / Подгоревший / Burnt (Джон Уэллс / John Wells) [2014, США, драма, комедия, BDRip] Dub + Sub Rus, Eng + Original Eng

Ответить на тему
Статистика раздачи
Размер:  2.18 GB   |    Зарегистрирован:  4 года 11 месяца   |    Скачано:  2 раза
Список скачавших: Нет

Полного источника не было: Никогда

     
 
Автор Сообщение

Гость ®

Создавать темы 03-Май-2019 15:36 | #1

[Цитировать]

Шеф Адам Джонс / Подгоревший / Burnt
Страна: США
Жанр: драма, комедия
Год выпуска: 2014
Продолжительность: 01:41:00
Перевод: Профессиональный (дублированный)
Субтитры: русские (форсированные на французскую речь), английские (полные, форсированные)
Оригинальная аудиодорожка: английский
Режиссер: Джон Уэллс / John Wells
В ролях: Брэдли Купер, Сиенна Миллер, Омар Си, Даниэль Брюль, Риккардо Скамарчио, Ума Турман, Эмма Томпсон, Сэм Кили, Генри Гудман, Мэттью Риз, Стивен Кэмпбелл Мур, Алисия Викандер
Описание: В центре сюжета — история некогда знаменитого шеф-повара, который из-за своего пагубного пристрастия теряет собственный ресторан в Париже. Решив не сдаваться, он вновь собирает свою команду, перестраивает лондонский ресторан и надеется получить три звезды.
Сэмпл
Качество видео: BDRip
Формат видео: AVI
Видео: 720x304 (2.37:1), 23.976 fps, XviD MPEG-4 ~2252 kbps avg, 0.43 bit/pixel
Аудио: 48 kHz, AC3 Dolby Digital, 3/2 (L,C,R,l,r) + LFE ch, ~384 kbps - дубляж
Аудио: 48 kHz, AC3 Dolby Digital, 3/2 (L,C,R,l,r) + LFE ch, ~448 kbps - оригинал
Формат субтитров: softsub (SRT)

MediaInfo

General
Complete name : H:\Burnt.2015.bdrip_[2.18]_[teko]\Burnt.2015.bdrip_[2.18].avi
Format : AVI
Format/Info : Audio Video Interleave
Format profile : OpenDML
File size : 2.18 GiB
Duration : 1h 41mn
Overall bit rate : 3 092 Kbps
Writing application : VirtualDubMod 1.5.10.3 | www.virtualdub-fr.org || (build 2550/release)
Writing library : VirtualDubMod build 2550/release
Video
ID : 0
Format : MPEG-4 Visual
Format profile : Advanced Simple@L5
Format settings, BVOP : 2
Format settings, QPel : No
Format settings, GMC : No warppoints
Format settings, Matrix : Custom
Codec ID : XVID
Codec ID/Hint : XviD
Duration : 1h 41mn
Bit rate : 2 242 Kbps
Width : 720 pixels
Height : 304 pixels
Display aspect ratio : 2.35:1
Frame rate : 23.976 (23976/1000) fps
Color space : YUV
Chroma subsampling : 4:2:0
Bit depth : 8 bits
Scan type : Progressive
Compression mode : Lossy
Bits/(Pixel*Frame) : 0.427
Stream size : 1.58 GiB (73%)
Writing library : XviD 73
Audio #1
ID : 1
Format : AC-3
Format/Info : Audio Coding 3
Mode extension : CM (complete main)
Format settings, Endianness : Big
Codec ID : 2000
Duration : 1h 40mn
Bit rate mode : Constant
Bit rate : 384 Kbps
Channel(s) : 6 channels
Channel positions : Front: L C R, Side: L R, LFE
Sampling rate : 48.0 KHz
Frame rate : 31.250 fps (1536 spf)
Compression mode : Lossy
Stream size : 277 MiB (12%)
Alignment : Split accross interleaves
Interleave, duration : 42 ms (1.00 video frame)
Interleave, preload duratio : 500 ms
Audio #2
ID : 2
Format : AC-3
Format/Info : Audio Coding 3
Mode extension : CM (complete main)
Format settings, Endianness : Big
Codec ID : 2000
Duration : 1h 40mn
Bit rate mode : Constant
Bit rate : 448 Kbps
Channel(s) : 6 channels
Channel positions : Front: L C R, Side: L R, LFE
Sampling rate : 48.0 KHz
Frame rate : 31.250 fps (1536 spf)
Compression mode : Lossy
Stream size : 324 MiB (14%)
Alignment : Split accross interleaves
Interleave, duration : 42 ms (1.00 video frame)
Interleave, preload duratio : 500 ms

Скриншоты

Релиз группы:
--
Шеф Адам Джонс / Подгоревший / Burnt (Джон Уэллс / John Wells) [2014, США, драма, комедия, BDRip] Dub + Sub Rus, Eng + Original Eng [cybertorrent.pro-2492].torrent 
Торрент: Зарегистрирован [ 2019-05-03 15:36 ]

info_hash: 5D5F02ABBD5D4939D8A2DC5996ACDA281025E664

Скачать .torrent

Скачать

12 KB

Статус: проверено
Скачано: 2 раза
Размер: 2.18 GB
 
Показать сообщения:    
Ответить на тему

Текущее время: 18-Апр 06:48

Часовой пояс: UTC ± 0



Вы не можете начинать темы
Вы не можете отвечать на сообщения
Вы не можете редактировать свои сообщения
Вы не можете удалять свои сообщения
Вы не можете голосовать в опросах
Вы не можете прикреплять файлы к сообщениям
Вы можете скачивать файлы

[  Время выполнения: 0.0525 сек  |  MySQL: 0.0107 сек (20%) · 8 запр.  |  сжатие Gzip: выкл  |  Память: 429.79 KB / 2.37 MB / 1.51 MB  ] |  |  |