Шахматы (Алексей Почивалов) [2018, Россия, мультфильм для взрослых, WEBRip-AVC]

Ответить на тему
Статистика раздачи
Размер:  64 MB   |    Зарегистрирован:  4 года 11 месяца   |    Скачано:  4 раза
Список скачавших: Нет

Полного источника не было: Никогда

     
 
Автор Сообщение

Гость ®

Создавать темы 03-Май-2019 15:36 | #1

[Цитировать]

Шахматы
Страна: Россия
Жанр: мультфильм для взрослых
Продолжительность: 00:06:30
Год выпуска: 2018
Русские субтитры: нет
Режиссёр: Алексей Почивалов
Описание: Шахматное состязание перерастает в битву между белыми и чёрными фигурами, в которой соперники не гнушаются никаких средств.
Качество: WEBRip-AVC
Формат: MP4
Видео: 1256 kbps, 1280х720 (16:9), 25.000 fps, AVC (High@L3.1)
Аудио: 128 kbps, 44.1 kHz, 2 channels, AAC (LC)
Субтитры: отсутствуют

Подробные технические данные

General
Complete name : Шахматы (2018).mp4
Format : MPEG-4
Format profile : Base Media / Version 2
Codec ID : mp42
File size : 64.5 MiB
Duration : 6mn 30s
Overall bit rate mode : Variable
Overall bit rate : 1 387 Kbps
Encoded date : UTC 2019-04-29 17:16:48
Tagged date : UTC 2019-04-29 17:16:48
Writing application : Google
gsst : 0
gstd : 390095
Video
ID : 1
Format : AVC
Format/Info : Advanced Video Codec
Format profile : High@L3.1
Format settings, CABAC : Yes
Format settings, ReFrames : 3 frames
Codec ID : avc1
Codec ID/Info : Advanced Video Coding
Duration : 6mn 30s
Bit rate : 1 256 Kbps
Width : 1 280 pixels
Height : 720 pixels
Display aspect ratio : 16:9
Frame rate mode : Constant
Frame rate : 25.000 fps
Color space : YUV
Chroma subsampling : 4:2:0
Bit depth : 8 bits
Scan type : Progressive
Bits/(Pixel*Frame) : 0.055
Stream size : 58.4 MiB (91%)
Title : ISO Media file produced by Google Inc. Created on: 04/29/2019.
Encoded date : UTC 2019-04-29 17:16:48
Tagged date : UTC 2019-04-29 17:16:48
Color primaries : BT.709
Transfer characteristics : BT.709
Matrix coefficients : BT.709
Audio
ID : 2
Format : AAC
Format/Info : Advanced Audio Codec
Format profile : LC
Codec ID : 40
Duration : 6mn 30s
Bit rate mode : Variable
Bit rate : 128 Kbps
Channel(s) : 2 channels
Channel positions : Front: L R
Sampling rate : 44.1 KHz
Compression mode : Lossy
Stream size : 5.95 MiB (9%)
Title : ISO Media file produced by Google Inc. Created on: 04/29/2019.
Language : English
Encoded date : UTC 2019-04-29 17:16:48
Tagged date : UTC 2019-04-29 17:16:48

Скриншоты

Шахматы (Алексей Почивалов) [2018, Россия, мультфильм для взрослых, WEBRip-AVC] [cybertorrent.pro-2493].torrent 
Торрент: Зарегистрирован [ 2019-05-03 15:36 ]

info_hash: 019D044383DDC988EA0AE273B0FBEC55DBACD281

Скачать .torrent

Скачать

11 KB

Статус: проверено
Скачано: 4 раза
Размер: 64 MB
 
Показать сообщения:    
Ответить на тему

Текущее время: 23-Апр 05:30

Часовой пояс: UTC ± 0



Вы не можете начинать темы
Вы не можете отвечать на сообщения
Вы не можете редактировать свои сообщения
Вы не можете удалять свои сообщения
Вы не можете голосовать в опросах
Вы не можете прикреплять файлы к сообщениям
Вы можете скачивать файлы

[  Время выполнения: 0.1008 сек  |  MySQL: 0.0691 сек (69%) · 10 запр.  |  сжатие Gzip: выкл  |  Память: 429.79 KB / 2.36 MB / 1.51 MB  ] |  |  |