Полицейский с Рублёвки. Новогодний беспредел (Илья Куликов) [2018, комедия, WEBRip]

Ответить на тему
Статистика раздачи
Размер:  1.45 GB   |    Зарегистрирован:  5 года   |    Скачано:  1 раз
Список скачавших: Нет

Полного источника не было: 4 года 7 месяца

     
 
Автор Сообщение

Гость ®

Создавать темы 05-Май-2019 16:31 | #1

[Цитировать]

Полицейский с Рублёвки. Новогодний беспредел
Страна: Россия
Жанр: комедия
Год выпуска: 2018
Продолжительность: 01:30:02
Субтитры: нет-Режиссер:
Илья Куликов-В ролях:
Александр Петров (II), Александра Бортич, Сергей Бурунов, Татьяна Бабенкова, Софья Каштанова, Роман Попов, Ростислав Гулбис, Анастасия Стежко, Лилия Лаврова, Виктория Тарасова, Анна Котова, Сергей Калашников, Сергей Штатнов, Владимир Рузанов-Описание:
В канун нового года отделение полиции «Барвиха Северное» оказывается под угрозой закрытия. Чтобы спасти родной отдел, полицейский с Рублевки Гриша Измайлов вынужден пойти на крайние меры и вместе с оперативниками решает ограбить банк. Он рассчитывает на то, что его коллеги вместе с начальником отдела — Яковлевым легко раскроют это дело, деньги вернут обратно, и все сохранят работу в следующем году. Но все идет не так, как задумал Гриша…- -Качество видео: WEBRip
Формат видео: AVI
Видео: 720x304 (2.37:1), 25 fps, XviD build 73 ~2111 kbps avg, 0.39 bit/pixel
Аудио: 48 kHz, AC3 Dolby Digital, 2/0 (L,R) ch, ~192 kbps-Сэмпл-

MediaInfo

Код:Формат : AVI
Формат/Информация : Audio Video Interleave
Размер файла : 1,45 Гбайт
Продолжительность : 1 ч. 30 м.
Общий поток : 2314 Кбит/сек
Название фильма : Полицейский с Рублёвки. Новогодний беспредел_2018_WEBRip
Программа кодирования : VirtualDubMod 1.5.10.3 | www.virtualdub-fr.org || (build 2550/release)
Авторское право : порошков
Видео
Идентификатор : 0
Формат : MPEG-4 Visual
Профиль формата : Advanced Simple@L5
Настройки формата : BVOP1 / Custom Matrix
Параметр BVOP формата : 1
Параметр QPel формата : Нет
Параметр GMC формата : Без точки перехода
Параметр матрицы формата : Выборочная
Идентификатор кодека : XVID
Идентификатор кодека/Подсказка : XviD
Продолжительность : 1 ч. 30 м.
Битрейт : 2112 Кбит/сек
Ширина : 720 пикселей
Высота : 304 пикселя
Соотношение сторон : 2,35:1
Частота кадров : 25,000 кадров/сек
Цветовое пространство : YUV
Субдискретизация насыщенности : 4:2:0
Битовая глубина : 8 бит
Тип развёртки : Прогрессивная
Метод сжатия : С потерями
Бит/(Пиксели*Кадры) : 0.386
Размер потока : 1,33 Гбайт (91%)
Библиотека кодирования : XviD 73
Аудио
Идентификатор : 1
Формат : AC-3
Формат/Информация : Audio Coding 3
Коммерческое название : Dolby Digital
Идентификатор кодека : 2000
Продолжительность : 1 ч. 30 м.
Вид битрейта : Постоянный
Битрейт : 192 Кбит/сек
Каналы : 2 канала
ChannelLayout : L R
Частота : 48,0 КГц
Частота кадров : 31,250 кадров/сек (1536 SPF)
Битовая глубина : 16 бит
Метод сжатия : С потерями
Размер потока : 124 Мбайт (8%)
Выравнивание : Разделение по промежуткам
Продолжительность промежутка : 40 мс. (1,00 видеокадр)
Время предзагрузки промежутка : 500 мс.
ServiceKind/String : Complete Main

Скриншоты


Полицейский с Рублёвки. Новогодний беспредел (Илья Куликов) [2018, комедия, WEBRip] [cybertorrent.pro-2559].torrent 
Торрент: Зарегистрирован [ 2019-05-05 16:32 ]

info_hash: 12503A9CB14F4395AF48F01171A4F2ED2714AEB4

Скачать .torrent

Скачать

15 KB

Статус: проверено
Скачано: 1 раз
Размер: 1.45 GB
 
Показать сообщения:    
Ответить на тему

Текущее время: 20-Май 10:07

Часовой пояс: UTC ± 0



Вы не можете начинать темы
Вы не можете отвечать на сообщения
Вы не можете редактировать свои сообщения
Вы не можете удалять свои сообщения
Вы не можете голосовать в опросах
Вы не можете прикреплять файлы к сообщениям
Вы можете скачивать файлы

[  Время выполнения: 0.0526 сек  |  MySQL: 0.0150 сек (29%) · 8 запр.  |  сжатие Gzip: выкл  |  Память: 429.79 KB / 2.35 MB / 1.5 MB  ] |  |  |