Ковёр-самолёт / Hodja fra Pjort / Up and Away (Карстен Килерих / Karsten Kiilerich) [2018, Дания, мультфильм, семейный, BDRip] Dub (iTunes)

Ответить на тему
Статистика раздачи
Размер:  1.46 GB   |    Зарегистрирован:  5 года   |    Скачано:  5 раза
Список скачавших: Нет

Полного источника не было: Никогда

     
 
Автор Сообщение

karlll ®

Пол: Не указан

Зарегистрированный: 5 года 2 месяца

Сообщений: 162

Создавать темы 06-Май-2019 16:57 | #1 · Автор

[Цитировать]

Ковёр-самолёт / Hodja fra Pjort / Up and Away
Страна: Дания
Жанр: мультфильм, семейный
Год выпуска: 2018
Продолжительность: 01:21:03-Перевод: Профессиональный (дублированный) | iTunes
Субтитры: нет
Оригинальная аудиодорожка: нет-Режиссер: Карстен Килерих / Karsten Kiilerich-В ролях: Вибеке Дюхольм, Петер Фрёдин, Эрик Холми, Ребекка Ронде Килерих, Сонни Лэхи, Туре Линдхардт, Михаэль Зуков Мардорф, Сьюзи Пауэр, Биргитте Рааберг, Ларс Ранте-Описание: Главный герой растёт мечтательным мальчиком, который хочет увидеть мир. Его отец, смотря на жизнь куда более реалистично, настаивает, чтобы сын выбросил никчёмные мысли из головы и выучился на портного. Но мальчик не перестаёт мечтать о путешествиях в далекие края, и в один прекрасный день встречает купца ЭльФазу, который готов пожаловать ему ковер-самолёт, если мальчик отправится в большой город под властью султана, найдёт и возвратит ЭльФазе его маленькую внучку...- -Качество видео: BDRip | Hodja.fra.Pjort.AKA.Up.and.Away.2018.BDREMUX.1080p.seleZen
Формат видео: AVI
Видео: 720x304 (2.37:1), 24.000 fps, XviD build 73 ~2177 kbps avg, 0.41 bit/pixel
Аудио: 48 kHz, AC3 Dolby Digital, 3/2 (L,C,R,l,r) + LFE ch, ~384 kbps-Сэмпл-

MediaInfo

Код:Формат : AVI
Формат/Информация : Audio Video Interleave
Размер файла : 1,46 Гбайт
Продолжительность : 1 ч. 21 м.
Общий поток : 2570 Кбит/сек
Название фильма : Ковёр-самолёт_2018_BDRip
Программа кодирования : VirtualDubMod 1.5.10.3 | www.virtualdub-fr.org || (build 2550/release)
Авторское право : порошков
Видео
Идентификатор : 0
Формат : MPEG-4 Visual
Профиль формата : Advanced Simple@L5
Настройки формата : BVOP1 / Custom Matrix
Параметр BVOP формата : 1
Параметр QPel формата : Нет
Параметр GMC формата : Без точки перехода
Параметр матрицы формата : Выборочная
Идентификатор кодека : XVID
Идентификатор кодека/Подсказка : XviD
Продолжительность : 1 ч. 21 м.
Битрейт : 2177 Кбит/сек
Ширина : 720 пикселей
Высота : 304 пикселя
Соотношение сторон : 2,35:1
Частота кадров : 24,000 кадра/сек
Цветовое пространство : YUV
Субдискретизация насыщенности : 4:2:0
Битовая глубина : 8 бит
Тип развёртки : Прогрессивная
Метод сжатия : С потерями
Бит/(Пиксели*Кадры) : 0.414
Размер потока : 1,23 Гбайт (85%)
Библиотека кодирования : XviD 73
Аудио
Идентификатор : 1
Формат : AC-3
Формат/Информация : Audio Coding 3
Коммерческое название : Dolby Digital
Идентификатор кодека : 2000
Продолжительность : 1 ч. 21 м.
Вид битрейта : Постоянный
Битрейт : 384 Кбит/сек
Каналы : 6 каналов
ChannelLayout : L R C LFE Ls Rs
Частота : 48,0 КГц
Частота кадров : 31,250 кадров/сек (1536 SPF)
Битовая глубина : 16 бит
Метод сжатия : С потерями
Размер потока : 223 Мбайт (15%)
Выравнивание : Разделение по промежуткам
Продолжительность промежутка : 42 мс. (1,00 видеокадр)
Время предзагрузки промежутка : 500 мс.
ServiceKind/String : Complete Main

Скриншоты


Ковёр-самолёт / Hodja fra Pjort / Up and Away (Карстен Килерих / Karsten Kiilerich) [2018, Дания, мультфильм, семейный, BDRip] Dub (iTunes) [cybertorrent.pro-2583].torrent 
Торрент: Зарегистрирован [ 2019-05-06 16:58 ]

info_hash: F35C70B1DC70CD9461EEDCBDE0C14EF3846BB4A3

Скачать .torrent

Скачать

15 KB

Статус: проверено
Скачано: 5 раза
Размер: 1.46 GB
[Профиль] [ЛС]
Показать сообщения:    
Ответить на тему

Текущее время: 18-Май 12:12

Часовой пояс: UTC ± 0



Вы не можете начинать темы
Вы не можете отвечать на сообщения
Вы не можете редактировать свои сообщения
Вы не можете удалять свои сообщения
Вы не можете голосовать в опросах
Вы не можете прикреплять файлы к сообщениям
Вы можете скачивать файлы

[  Время выполнения: 0.1028 сек  |  MySQL: 0.0632 сек (62%) · 11 запр.  |  сжатие Gzip: выкл  |  Память: 429.79 KB / 2.36 MB / 1.51 MB  ] |  |  |