Тайный мир Анны / Ana y Bruno (Карлос Каррера / Carlos Carrera) [2017, Мексика, мультфильм, приключения, WEB-DLRip] Dub (iTunes)

Ответить на тему
Статистика раздачи
Размер:  1.46 GB   |    Зарегистрирован:  5 года   |    Скачано:  3 раза
Список скачавших: Нет

Полного источника не было: Никогда

     
 
Автор Сообщение

karlll ®

Пол: Не указан

Зарегистрированный: 5 года 2 месяца

Сообщений: 162

Создавать темы 07-Май-2019 17:25 | #1 · Автор

[Цитировать]

Тайный мир Анны / Ana y Bruno
Страна: Мексика
Жанр: мультфильм, приключения
Год выпуска: 2017
Продолжительность: 01:32:28-Перевод: Профессиональный (дублированный) | iTunes
Субтитры: нет
Оригинальная аудиодорожка: нет-Режиссер: Карлос Каррера / Carlos Carrera-В ролях: Галья Майер, Дамиан Алькасар, Марина Де Тавира, Эктор Бонилья, Сильверио Паласиос, Маурицио Исаак, Хульета Эгуррола, Карлос Кобос, Рикардо Эскерра, Дэниэл Каррера-Описание: История о необычной девочке Анне, которая живёт в мире фантазий, иллюзий и волшебства. Вместе с новыми чудаковатыми друзьями, которых кроме Анны никто не видит, она отправится в увлекательное путешествие за мечтой…- -Качество видео: WEB-DLRip
Формат видео: AVI
Видео: 720x304 (2.37:1), 25 fps, XviD build 73 ~1859 kbps avg, 0.34 bit/pixel
Аудио: 48 kHz, AC3 Dolby Digital, 3/2 (L,C,R,l,r) + LFE ch, ~384 kbps-Сэмпл-

MediaInfo

Код:Формат : AVI
Формат/Информация : Audio Video Interleave
Размер файла : 1,46 Гбайт
Продолжительность : 1 ч. 32 м.
Общий поток : 2254 Кбит/сек
Название фильма : Тайный мир Анны_2017_WEB-DLRip
Программа кодирования : VirtualDubMod 1.5.10.3 | www.virtualdub-fr.org || (build 2550/release)
Авторское право : порошков
Видео
Идентификатор : 0
Формат : MPEG-4 Visual
Профиль формата : Advanced Simple@L5
Настройки формата : BVOP1 / Custom Matrix
Параметр BVOP формата : 1
Параметр QPel формата : Нет
Параметр GMC формата : Без точки перехода
Параметр матрицы формата : Выборочная
Идентификатор кодека : XVID
Идентификатор кодека/Подсказка : XviD
Продолжительность : 1 ч. 32 м.
Битрейт : 1860 Кбит/сек
Ширина : 720 пикселей
Высота : 304 пикселя
Соотношение сторон : 2,35:1
Частота кадров : 25,000 кадров/сек
Цветовое пространство : YUV
Субдискретизация насыщенности : 4:2:0
Битовая глубина : 8 бит
Тип развёртки : Прогрессивная
Метод сжатия : С потерями
Бит/(Пиксели*Кадры) : 0.340
Размер потока : 1,20 Гбайт (83%)
Библиотека кодирования : XviD 73
Аудио
Идентификатор : 1
Формат : AC-3
Формат/Информация : Audio Coding 3
Коммерческое название : Dolby Digital
Идентификатор кодека : 2000
Продолжительность : 1 ч. 32 м.
Вид битрейта : Постоянный
Битрейт : 384 Кбит/сек
Каналы : 6 каналов
ChannelLayout : L R C LFE Ls Rs
Частота : 48,0 КГц
Частота кадров : 31,250 кадров/сек (1536 SPF)
Битовая глубина : 16 бит
Метод сжатия : С потерями
Размер потока : 254 Мбайт (17%)
Выравнивание : Разделение по промежуткам
Продолжительность промежутка : 40 мс. (1,00 видеокадр)
Время предзагрузки промежутка : 500 мс.
ServiceKind/String : Complete Main

Скриншоты


Тайный мир Анны / Ana y Bruno (Карлос Каррера / Carlos Carrera) [2017, Мексика, мультфильм, приключения, WEB-DLRip] Dub (iTunes) [cybertorrent.pro-2610].torrent 
Торрент: Зарегистрирован [ 2019-05-07 17:26 ]

info_hash: 5881A9424BDDDA0DCDFD081F5EA26B34582EF8D4

Скачать .torrent

Скачать

15 KB

Статус: проверено
Скачано: 3 раза
Размер: 1.46 GB
[Профиль] [ЛС]
Показать сообщения:    
Ответить на тему

Текущее время: 20-Май 09:15

Часовой пояс: UTC ± 0



Вы не можете начинать темы
Вы не можете отвечать на сообщения
Вы не можете редактировать свои сообщения
Вы не можете удалять свои сообщения
Вы не можете голосовать в опросах
Вы не можете прикреплять файлы к сообщениям
Вы можете скачивать файлы

[  Время выполнения: 0.0411 сек  |  MySQL: 0.0112 сек (27%) · 8 запр.  |  сжатие Gzip: выкл  |  Память: 429.79 KB / 2.35 MB / 1.5 MB  ] |  |  |