Не хочу жениться! (Сергей Никоненко) [1993, комедия, VHSRip]

Ответить на тему
Статистика раздачи
Размер:  3.59 GB   |    Зарегистрирован:  5 года 1 месяц   |    Скачано:  1 раз
Список скачавших: Нет

Полного источника не было: Никогда

     
 
Автор Сообщение

Гость ®

Создавать темы 18-Мар-2019 09:59 | #1

[Цитировать]

Не хочу жениться!
Жанр: комедия
Год выпуска: 1993
Продолжительность: 01:21:30
Режиссёр: Сергей Никоненко
В ролях: Евгений Леонов-Гладышев, Светлана Рябова, Михаил Евдокимов, Татьяна Догилева, Татьяна Кравченко, Виктор Ильичёв, Ольга Волкова, Сергей Никоненко, Екатерина Воронина, Светлана Суховей
Описание: Принципиальный холостяк, мастер пластических операций при довольно странных обстоятельствах знакомится с длинноносой милиционершей. Сделав ей операцию, он подобно Пигмалиону, сотворившему Галатею, влюбляется в прекрасное творение рук своих и заявляет: «Я хочу на тебе жениться!»…
Доп. информация: Оцифровка VHS (личный архив) и получение VHSRip alenavova
Эксклюзив для rutracker.org. При размещении данного релиза на других сайтах ссылка на автора alenavova обязательна.
Релиз
Сэмпл: https://yadi.sk/i/2DpCExotc4HS1A
Качество видео: VHSRip
Формат видео: AVI
Видео: MPEG2 Video 720x576 (4:3) 25fps bit rate 6 305 kb/s
Аудио: MPEG Audio 48000Hz 192kbps

MediaInfo

Не хочу жениться [by alenavova].mpg
Format : MPEG-PS
File size : 3.59 GiB
Duration : 1 h 21 min
Overall bit rate mode : Variable
Overall bit rate : 6 305 kb/s
Writing library : (dvd5: Oct 27 2015)
Video
ID : 224 (0xE0)
Format : MPEG Video
Format version : Version 2
Format profile : Main@Main
Format settings : CustomMatrix / BVOP
Format settings, BVOP : Yes
Format settings, Matrix : Custom
Format settings, GOP : M=3, N=15
Duration : 1 h 21 min
Bit rate mode : Variable
Bit rate : 6 000 kb/s
Width : 720 pixels
Height : 576 pixels
Display aspect ratio : 4:3
Frame rate : 25.000 FPS
Standard : PAL
Color space : YUV
Chroma subsampling : 4:2:0
Bit depth : 8 bits
Scan type : Progressive
Compression mode : Lossy
Bits/(Pixel*Frame) : 0.579
Time code of first frame : 00:00:00:00
Time code source : Group of pictures header
GOP, Open/Closed : Open
Stream size : 3.41 GiB (95%)
Writing library : (dvd5: Oct 27 2015)
Audio
ID : 192 (0xC0)
Format : MPEG Audio
Format version : Version 1
Format profile : Layer 2
Duration : 1 h 21 min
Bit rate mode : Constant
Bit rate : 192 kb/s
Channel(s) : 2 channels
Sampling rate : 48.0 kHz
Frame rate : 41.667 FPS (1152 SPF)
Compression mode : Lossy
Delay relative to video : -80 ms
Stream size : 112 MiB (3%)
Menu

Скриншоты


Не хочу жениться! (Сергей Никоненко) [1993, комедия, VHSRip] [cybertorrent.pro-330].torrent 
Торрент: Зарегистрирован [ 2019-03-18 10:04 ]

info_hash: 1753979F29EA16789FF6406D1364C5470F8165B2

Скачать .torrent

Скачать

18 KB

Статус: проверено
Скачано: 1 раз
Размер: 3.59 GB
 
Показать сообщения:    
Ответить на тему

Текущее время: 23-Апр 05:06

Часовой пояс: UTC ± 0



Вы не можете начинать темы
Вы не можете отвечать на сообщения
Вы не можете редактировать свои сообщения
Вы не можете удалять свои сообщения
Вы не можете голосовать в опросах
Вы не можете прикреплять файлы к сообщениям
Вы можете скачивать файлы

[  Время выполнения: 0.0953 сек  |  MySQL: 0.0661 сек (69%) · 10 запр.  |  сжатие Gzip: выкл  |  Память: 429.79 KB / 2.36 MB / 1.51 MB  ] |  |  |