Убийственная вечеринка / Slasher Party (Тони Вильялобос / Tony Villalobos) [2019, США, ужасы, WEB-DLRip] MVO (HDRezka Studio)

Ответить на тему
Статистика раздачи
   
 
Автор Сообщение

Гость ®

Создавать темы 18-Мар-2019 13:07 | #1

[Цитировать]

Убийственная вечеринка / Slasher Party
Страна: США
Жанр: ужасы
Год выпуска: 2019
Продолжительность: 01:20:20-Перевод: Любительский (многоголосый закадровый) | HDRezka Studio
Субтитры: нет
Оригинальная аудиодорожка: нет-Режиссер: Тони Вильялобос / Tony Villalobos-В ролях: Дэнни Трехо, Томми Листер, Сара МакДэниел, Рэй Джей, Тимоти Делагетто, Виталий Здоровецкий, Кинси Волански, Йоханнес Бартл, Хана Хиральдо, Тонио Скитс-Описание: В центре сюжета оказывается группа знаменитостей, получивших приглашение на улётное автопати, которое будет проходить в комфортном загородном доме. Оказавшись на месте, герои с удивлением выясняют, что кроме них в доме никого нет. После недолгого разговора и взаимного обмена колкостями, они все же решают остаться, и разбившись на группы по интересам, начинают весело проводить время, совершенно не задумываясь, для чего их собрали в одном месте. Очень скоро их единственным "развлечением" окажется выживание, так как появившийся в доме маньяк начинает методично убивать гостей...-Качество видео: WEB-DLRip
Формат видео: AVI
Видео: 720x304 (2.37:1), 23.976 fps, XviD build 73 ~2389 kbps avg, 0.46 bit/pixel
Аудио: 48 kHz, AC3 Dolby Digital, 2/0 (L,R) ch, ~192 kbps-Сэмпл-

MediaInfo

Код:Формат : AVI
Формат/Информация : Audio Video Interleave
Размер файла : 1,45 Гбайт
Продолжительность : 1 ч. 20 м.
Общий поток : 2591 Кбит/сек
Программа кодирования : VirtualDubMod 1.5.10.3 | www.virtualdub-fr.org || (build 2550/release)
Библиотека кодирования : VirtualDubMod build 2550/release
Видео
Идентификатор : 0
Формат : MPEG-4 Visual
Профиль формата : Advanced Simple@L5
Настройки формата : BVOP1 / Custom Matrix
Параметр BVOP формата : 1
Параметр QPel формата : Нет
Параметр GMC формата : Без точки перехода
Параметр матрицы формата : Выборочная
Идентификатор кодека : XVID
Идентификатор кодека/Подсказка : XviD
Продолжительность : 1 ч. 20 м.
Битрейт : 2389 Кбит/сек
Ширина : 720 пикселей
Высота : 304 пикселя
Соотношение сторон : 2,35:1
Частота кадров : 23,976 (24000/1001) кадра/сек
Цветовое пространство : YUV
Субдискретизация насыщенности : 4:2:0
Битовая глубина : 8 бит
Тип развёртки : Прогрессивная
Метод сжатия : С потерями
Бит/(Пиксели*Кадры) : 0.455
Размер потока : 1,34 Гбайт (92%)
Библиотека кодирования : XviD 73
Аудио
Идентификатор : 1
Формат : AC-3
Формат/Информация : Audio Coding 3
Коммерческое название : Dolby Digital
Идентификатор кодека : 2000
Продолжительность : 1 ч. 20 м.
Вид битрейта : Постоянный
Битрейт : 192 Кбит/сек
Каналы : 2 канала
Channel layout : L R
Частота : 48,0 КГц
Частота кадров : 31,250 кадров/сек (1536 SPF)
Битовая глубина : 16 бит
Метод сжатия : С потерями
Размер потока : 110 Мбайт (7%)
Выравнивание : Разделение по промежуткам
Продолжительность промежутка : 42 мс. (1,00 видеокадр)
Время предзагрузки промежутка : 500 мс.
ServiceKind/String : Complete Main

Скриншоты


 
Показать сообщения:    
Ответить на тему

Текущее время: 16-Июн 11:55

Часовой пояс: UTC ± 0



Вы не можете начинать темы
Вы не можете отвечать на сообщения
Вы не можете редактировать свои сообщения
Вы не можете удалять свои сообщения
Вы не можете голосовать в опросах
Вы не можете прикреплять файлы к сообщениям
Вы не можете скачивать файлы

[  Время выполнения: 0.0426 сек  |  MySQL: 0.0046 сек (11%) · 4 запр.  |  сжатие Gzip: выкл  |  Память: 429.79 KB / 1.99 MB / 1.4 MB  ] |  |  |