Три девушки (Мурад Ибрагимбеков) [2007, Россия, Азербайджан, комедия, HDTVRip]

Ответить на тему
Статистика раздачи
Размер:  743 MB   |    Зарегистрирован:  5 года 2 месяца   |    Скачано:  2 раза
Список скачавших: Нет

Полного источника не было: Никогда

     
 
Автор Сообщение

Гость ®

Создавать темы 18-Мар-2019 13:07 | #1

[Цитировать]

Три девушки
Год выпуска: 2007
Страна: Россия, Азербайджан
Жанр: комедия
Продолжительность: 01:23:19.319 (124983 frames)
Субтитры: нет
Режиссер: Мурад Ибрагимбеков
В ролях: Йоахим Пауль Ассбёк, Александра Финдер, Сергей Фролов, Мурад Ибрагимбеков, Арзу Кадирбекова, Равшана Куркова, Тарана Одьявердиева, Михаил Полицеймако, Заур Теймурбеков
Описание: Вторая мировая война: из Краковского музея украдена картина. Вдогонку за подозреваемым в Северную Африку направлен сыщик. Занзарен, самопровозглашенный художник, живет приморской деревушке и постоянно пишет картины, изображающие трех обнаженных девушек на морском берегу. Расследование идет своим чередом, и действие, происходящие в Северной Африке в конце Второй мировой войны, переплетаются с событиями, имеющими место в современном Баку. Три одноклассника растут в совершенно разных мирах. Гена становится милиционером, Джамбо — вором, а Маф — лидером местной преступной группировки. Три подруги — художница Майя, студентка Плюша и Сабина, работающая компьютерщиком в спортклубе, принадлежащем Мафу, — занимаются спортивной стрельбой уже более 10 лет. Каждая из них расцветает по-своему и ищет любовь. Маф получает по электронной почте письмо с указанием «раздобыть» картину под названием «Три девушки», которую скоро должны представить на выставке в Национальном музее. Маф обманом выигрывает в нарды у своего старого школьного друга Джамбо. Чтобы загладить долг, Джамбо должен украсть полотно или же умереть — перед таким выбором ставит его Маф. Случайная встреча Майи и Джамбо у картины становится судьбоносной: девушка влюбляется и, сама того не желая, становится соучастником, решившись подделать полотно. В поисках выхода девушки решают, что Плюша должна поговорить с молодым полицейским Геной, ищущим ее расположения. Иллюзия любви, бойфренды, которые не умеют стрелять и подделки подделок подделок — чтобы выбраться из этого болота, девушки должны найти в себе мужество и вспомнить о своих занятиях стрельбой, для того чтобы обрести свободу и встретиться с Занзареном и узнать его секрет.
Качество: HDTVRip
Формат: AVI
Видео кодек: XviD
Аудио кодек: МР3
Видео: 688x384 (1.79:1), 25 fps, XviD build 73 ~1109 kbps avg, 0.17 bit/pixel
Аудио: 48 kHz, MPEG Layer 3, 2 ch, ~128.00 kbps avg

Скриншоты

Медиаинфо

General
Complete name : E:\004 Мои раздачи\3 девушки 745\3_devushki_745_by_bm11.avi
Format : AVI
Format/Info : Audio Video Interleave
File size : 743 MiB
Duration : 1h 23mn
Overall bit rate : 1 248 Kbps
Director : bm11
Writing application : VirtualDubMod 1.5.10.3 | www.virtualdub-fr.org || (build 2550/release)
Video
ID : 0
Format : MPEG-4 Visual
Format profile : Advanced Simple@L5
Format settings, BVOP : 1
Format settings, QPel : No
Format settings, GMC : No warppoints
Format settings, Matrix : Custom
Codec ID : XVID
Codec ID/Hint : XviD
Duration : 1h 23mn
Bit rate : 1 110 Kbps
Width : 688 pixels
Height : 384 pixels
Display aspect ratio : 16:9
Frame rate : 25.000 fps
Color space : YUV
Chroma subsampling : 4:2:0
Bit depth : 8 bits
Scan type : Progressive
Compression mode : Lossy
Bits/(Pixel*Frame) : 0.168
Stream size : 661 MiB (89%)
Writing library : XviD 73
Audio
ID : 1
Format : MPEG Audio
Format version : Version 1
Format profile : Layer 3
Codec ID : 55
Codec ID/Hint : MP3
Duration : 1h 23mn
Bit rate mode : Constant
Bit rate : 128 Kbps
Channel(s) : 2 channels
Sampling rate : 48.0 KHz
Compression mode : Lossy
Stream size : 76.3 MiB (10%)
Alignment : Aligned on interleaves
Interleave, duration : 40 ms (1.00 video frame)
Interleave, preload duratio : 504 ms
Writing library : LAME3.99r
Encoding settings : -m s -V 4 -q 2 -lowpass 17 -b 128
Три девушки (Мурад Ибрагимбеков) [2007, Россия, Азербайджан, комедия, HDTVRip] [cybertorrent.pro-443].torrent 
Торрент: Зарегистрирован [ 2019-03-18 13:08 ]

info_hash: 275534B81AA5718B3FB71D2ECF3D43D76ACB7024

Скачать .torrent

Скачать

15 KB

Статус: проверено
Скачано: 2 раза
Размер: 743 MB
 
Показать сообщения:    
Ответить на тему

Текущее время: 20-Май 10:14

Часовой пояс: UTC ± 0



Вы не можете начинать темы
Вы не можете отвечать на сообщения
Вы не можете редактировать свои сообщения
Вы не можете удалять свои сообщения
Вы не можете голосовать в опросах
Вы не можете прикреплять файлы к сообщениям
Вы можете скачивать файлы

[  Время выполнения: 0.7199 сек  |  MySQL: 0.1766 сек (25%) · 8 запр.  |  сжатие Gzip: выкл  |  Память: 429.79 KB / 2.36 MB / 1.51 MB  ] |  |  |