Святая Агата / St. Agatha (Даррен Линн Боусман / Darren Lynn Bousman) [2018, США, ужасы, триллер, драма, WEB-DLRip] [Локализованный видеоряд] Dub (iTunes)

Ответить на тему
Статистика раздачи
Размер:  1.46 GB   |    Зарегистрирован:  5 года   |    Скачано:  0 раза
Список скачавших: Нет

Полного источника не было: Никогда

     
 
Автор Сообщение

солнышко ®

Пол: Женский

Зарегистрированный: 5 года 1 месяц

Сообщений: 712

Создавать темы 18-Мар-2019 13:06 | #1 · Автор

[Цитировать]

Святая Агата / St. Agatha
Страна: США
Жанр: ужасы, триллер, драма
Год выпуска: 2018
Продолжительность: 01:42:50-Перевод: Профессиональный (дублированный) | iTunes
Субтитры: нет
Оригинальная аудиодорожка: нет-Режиссер: Даррен Линн Боусман / Darren Lynn Bousman-В ролях: Сабрина Керн, Кэролин Хеннеси, Кортни Хэлверсон, Сет Майклс, Трин Миллер, Линдсэй Сейм, Шоун Флетчер, Джэйсон Уорнер Смит, Максимус Мёрра, Марша Фи Бергер-Описание: 50-е годы ХХ века, маленький городок штата Джорджия. Молодая авантюристка Мэри исколесила всю Америку, занимаясь мошенничеством. Когда девушка понимает, что беременна, она решает временно укрыться в женском монастыре. Героиня не подозревает, что монастырь хранит ужасные темные тайны, и никто еще не смог покинуть его стены, чтобы о них рассказать. Спустя какое-то время необъяснимая тревога, поселившаяся в ее сердце, начинает приобретать видимые формы, и становится ясно, что монахини совсем не те, за кого себя выдают.- -Качество видео: WEB-DLRip
Формат видео: AVI
Видео: 720x304 (2.37:1), 24 fps, XviD build 73 ~1639 kbps avg, 0.31 bit/pixel
Аудио: 48 kHz, AC3 Dolby Digital, 3/2 (L,C,R,l,r) + LFE ch, ~384 kbps-Сэмпл-

MediaInfo

Код:Формат : AVI
Формат/Информация : Audio Video Interleave
Размер файла : 1,46 Гбайт
Продолжительность : 1 ч. 42 м.
Общий поток : 2033 Кбит/сек
Программа кодирования : VirtualDubMod 1.5.10.3 | www.virtualdub-fr.org || (build 2550/release)
Библиотека кодирования : VirtualDubMod build 2550/release
Видео
Идентификатор : 0
Формат : MPEG-4 Visual
Профиль формата : Advanced Simple@L5
Настройки формата : BVOP1 / Custom Matrix
Параметр BVOP формата : 1
Параметр QPel формата : Нет
Параметр GMC формата : Без точки перехода
Параметр матрицы формата : Выборочная
Идентификатор кодека : XVID
Идентификатор кодека/Подсказка : XviD
Продолжительность : 1 ч. 42 м.
Битрейт : 1640 Кбит/сек
Ширина : 720 пикселей
Высота : 304 пикселя
Соотношение сторон : 2,35:1
Частота кадров : 24,000 кадра/сек
Цветовое пространство : YUV
Субдискретизация насыщенности : 4:2:0
Битовая глубина : 8 бит
Тип развёртки : Прогрессивная
Метод сжатия : С потерями
Бит/(Пиксели*Кадры) : 0.312
Размер потока : 1,18 Гбайт (81%)
Библиотека кодирования : XviD 73
Аудио
Идентификатор : 1
Формат : AC-3
Формат/Информация : Audio Coding 3
Коммерческое название : Dolby Digital
Идентификатор кодека : 2000
Продолжительность : 1 ч. 42 м.
Вид битрейта : Постоянный
Битрейт : 384 Кбит/сек
Каналы : 6 каналов
Channel layout : L R C LFE Ls Rs
Частота : 48,0 КГц
Частота кадров : 31,250 кадров/сек (1536 SPF)
Битовая глубина : 16 бит
Метод сжатия : С потерями
Размер потока : 282 Мбайт (19%)
Выравнивание : Разделение по промежуткам
Продолжительность промежутка : 42 мс. (1,00 видеокадр)
Время предзагрузки промежутка : 500 мс.
ServiceKind/String : Complete Main

Скриншоты


Святая Агата / St. Agatha (Даррен Линн Боусман / Darren Lynn Bousman) [2018, США, ужасы, триллер, драма, WEB-DLRip] [Локализованный видеоряд] Dub (iTunes) [cybertorrent.pro-488].torrent 
Торрент: Зарегистрирован [ 2019-03-18 13:08 ]

info_hash: 2645D02D40792F29529CB718834679CE3A9CBCA4

Скачать .torrent

Скачать

15 KB

Статус: проверено
Скачано: 0 раза
Размер: 1.46 GB
[Профиль] [ЛС]
Показать сообщения:    
Ответить на тему

Текущее время: 18-Апр 07:39

Часовой пояс: UTC ± 0



Вы не можете начинать темы
Вы не можете отвечать на сообщения
Вы не можете редактировать свои сообщения
Вы не можете удалять свои сообщения
Вы не можете голосовать в опросах
Вы не можете прикреплять файлы к сообщениям
Вы можете скачивать файлы

[  Время выполнения: 0.0412 сек  |  MySQL: 0.0104 сек (25%) · 8 запр.  |  сжатие Gzip: выкл  |  Память: 429.79 KB / 2.37 MB / 1.51 MB  ] |  |  |