Невеста волка (Жакен Даненов, Гани Кистауов) [2005, Казахстан, мультфильм, DVB]

Ответить на тему
Статистика раздачи
Размер:  171 MB   |    Зарегистрирован:  5 года 2 месяца   |    Скачано:  4 раза
Список скачавших: Нет

Полного источника не было: Никогда

     
 
Автор Сообщение

Гость ®

Создавать темы 18-Мар-2019 13:06 | #1

[Цитировать]

Невеста волка Год выпуска: 2005
Страна: Казахстан
Жанр: мультфильм
Продолжительность: 00:09:54
Перевод: не требуется-Режиссёры: Жакен Даненов, Гани Кистауов-Описание: Мультфильм-притча от известных казахстанских аниматоров - Жакена Даненова и Гани Кистауова.-Качество: DVB [Ел Арна] (эфир 16.03.2019)
Формат: TS
Видео: AVC, 720x576 (16:9) @ 1047x576, 25 fps, ~2096 kbps, 0.202 bit/pixel
Аудио: [RUS] MP2, 48 kHz, 2 ch, 192 kbps

Mediainfo

General
ID : 1 (0x1)
Complete name : H:\Раздачи\Невеста волка (2005) [DVB].ts
Format : MPEG-TS
File size : 171 MiB
Duration : 9 min 53 s
Overall bit rate mode : Variable
Overall bit rate : 2 409 kb/s
Video
ID : 1553 (0x611)
Menu ID : 222 (0xDE)
Format : AVC
Format/Info : Advanced Video Codec
Format profile : High@L3
Format settings : CABAC / 3 Ref Frames
Format settings, CABAC : Yes
Format settings, ReFrames : 3 frames
Format settings, GOP : M=4, N=32
Codec ID : 27
Duration : 9 min 53 s
Bit rate : 2 096 kb/s
Width : 720 pixels
Height : 576 pixels
Display aspect ratio : 16:9
Frame rate : 25.000 FPS
Standard : Component
Color space : YUV
Chroma subsampling : 4:2:0
Bit depth : 8 bits
Scan type : Interlaced
Scan type, store method : Separated fields
Scan order : Top Field First
Bits/(Pixel*Frame) : 0.202
Stream size : 148 MiB (87%)
Color range : Limited
Color primaries : BT.601 PAL
Transfer characteristics : BT.470 System B/G
Matrix coefficients : BT.470 System B/G
Audio
ID : 1554 (0x612)
Menu ID : 222 (0xDE)
Format : MPEG Audio
Format version : Version 1
Format profile : Layer 2
Codec ID : 3
Duration : 9 min 53 s
Bit rate mode : Constant
Bit rate : 192 kb/s
Channel(s) : 2 channels
Sampling rate : 48.0 kHz
Frame rate : 41.667 FPS (1152 SPF)
Compression mode : Lossy
Delay relative to video : -120 ms
Stream size : 13.6 MiB (8%)
Language : English

Скриншоты

Невеста волка (Жакен Даненов, Гани Кистауов) [2005, Казахстан, мультфильм, DVB] [cybertorrent.pro-537].torrent 
Торрент: Зарегистрирован [ 2019-03-18 13:08 ]

info_hash: DD7E828C605E973B767DC10D3E2AA5FB705AD341

Скачать .torrent

Скачать

14 KB

Статус: проверено
Скачано: 4 раза
Размер: 171 MB
 
Показать сообщения:    
Ответить на тему

Текущее время: 16-Июн 11:12

Часовой пояс: UTC ± 0



Вы не можете начинать темы
Вы не можете отвечать на сообщения
Вы не можете редактировать свои сообщения
Вы не можете удалять свои сообщения
Вы не можете голосовать в опросах
Вы не можете прикреплять файлы к сообщениям
Вы можете скачивать файлы

[  Время выполнения: 0.0467 сек  |  MySQL: 0.0145 сек (31%) · 8 запр.  |  сжатие Gzip: выкл  |  Память: 429.79 KB / 2.35 MB / 1.5 MB  ] |  |  |