Чёрное или белое / Black or White (Майк Байндер / Mike Binder) [2014, США, драма, HDRip] MVO (GreenРай Studio) + Original Eng

Ответить на тему
Статистика раздачи
   
 
Автор Сообщение

Гость ®

Создавать темы 18-Мар-2019 13:05 | #1

[Цитировать]

Чёрное или белое / Black or White
Страна: США
Жанр: драма
Год выпуска: 2014
Продолжительность: 02:01:25
Перевод: Любительский (многоголосый закадровый) GreenРай Studio
Субтитры: нет
Оригинальная аудиодорожка: английский
Режиссер: Майк Байндер / Mike Binder
В ролях: Кевин Костнер, Октавия Спенсер, Джиллиан Эстелл, Билл Бёрр, Мфо Коахо, Энтони Маки, Андре Холланд, Гиллиан Джейкобс, Дженнифер Эль, Паула Ньюсом,-Описание: Главный герой только что потерял супругу в автокатастрофе. Поскольку их дочь умерла во время родов, вдовцу приходится в одиночку воспитывать внучку. Когда появляется бабушка девочки по отцу, развязывается судебная битва за право опекунства. Проблема заключается в том, что дочь главного героя была замужем за афроамериканцем, поэтому его мать пытается забрать девочку к себе, тогда как дед хочет воспитывать внучку в окружении белых.-Качество видео: HDRip
Формат видео: AVI
Видео: XviD, 720x304 (2,36:1), 23,976 fps, 2172 kbps
Аудио 1: AC3 Dolby Digital, 48 kHz, 2 ch, 192 kbps (Rus)
Аудио 2: AC3 Dolby Digital, 48 kHz, 2 ch, 192 kbps (Eng)
За работу с аудиодорожкой большое спасибо Нордер

MediaInfo

Общее
Полное имя : Black or White 2014.avi
Формат : AVI
Формат/Информация : Audio Video Interleave
Профиль формата : OpenDML
Размер файла : 2,18 Гбайт
Продолжительность : 2 ч. 1 м.
Общий поток : 2574 Кбит/сек
Программа кодирования : VirtualDubMod 1.5.10.2 (build 2542/release)
Библиотека кодирования : VirtualDubMod build 2542/release
Видео
Идентификатор : 0
Формат : MPEG-4 Visual
Профиль формата : Advanced Simple@L5
Настройки формата : BVOP2 / Custom Matrix
Параметр BVOP формата : 2
Параметр QPel формата : Нет
Параметр GMC формата : Без точки перехода
Параметр матрицы формата : Выборочная
Идентификатор кодека : XVID
Идентификатор кодека/Подсказка : XviD
Продолжительность : 2 ч. 1 м.
Битрейт : 2172 Кбит/сек
Ширина : 720 пикселей
Высота : 304 пикселя
Соотношение сторон : 2,35:1
Частота кадров : 23,976 (24000/1001) кадра/сек
Цветовое пространство : YUV
Субдискретизация насыщенности : 4:2:0
Битовая глубина : 8 бит
Тип развёртки : Прогрессивная
Метод сжатия : С потерями
Бит/(Пиксели*Кадры) : 0.414
Размер потока : 1,84 Гбайт (84%)
Библиотека кодирования : XviD 65
Аудио #1
Идентификатор : 1
Формат : AC-3
Формат/Информация : Audio Coding 3
Идентификатор кодека : 2000
Продолжительность : 2 ч. 1 м.
Вид битрейта : Постоянный
Битрейт : 192 Кбит/сек
Каналы : 2 канала
Расположение каналов : Front: L R
Частота : 48,0 КГц
Частота кадров : 31,250 кадров/сек (1536 SPF)
Битовая глубина : 16 бит
Метод сжатия : С потерями
Размер потока : 167 Мбайт (7%)
Выравнивание : Разделение по промежуткам
Продолжительность промежутка : 42 мс. (1,00 видеокадр)
Время предзагрузки промежутка : 500 мс.
ServiceKind/String : Complete Main
Аудио #2
Идентификатор : 2
Формат : AC-3
Формат/Информация : Audio Coding 3
Идентификатор кодека : 2000
Продолжительность : 2 ч. 1 м.
Вид битрейта : Постоянный
Битрейт : 192 Кбит/сек
Каналы : 2 канала
Расположение каналов : Front: L R
Частота : 48,0 КГц
Частота кадров : 31,250 кадров/сек (1536 SPF)
Битовая глубина : 16 бит
Метод сжатия : С потерями
Размер потока : 167 Мбайт (7%)
Выравнивание : Разделение по промежуткам
Продолжительность промежутка : 42 мс. (1,00 видеокадр)
Время предзагрузки промежутка : 500 мс.
ServiceKind/String : Complete Main
 
Показать сообщения:    
Ответить на тему

Текущее время: 15-Июл 04:49

Часовой пояс: UTC ± 0



Вы не можете начинать темы
Вы не можете отвечать на сообщения
Вы не можете редактировать свои сообщения
Вы не можете удалять свои сообщения
Вы не можете голосовать в опросах
Вы не можете прикреплять файлы к сообщениям
Вы не можете скачивать файлы

[  Время выполнения: 0.0383 сек  |  MySQL: 0.0038 сек (10%) · 4 запр.  |  сжатие Gzip: выкл  |  Память: 429.99 KB / 1.99 MB / 1.42 MB  ] |  |  |